2013Zone For Latest Downloads

 
     
 
Legal Downloads » Music » Nirvana - Discography (1989-1996) [Japanese Original Pressing]
Menu
Home Applications
Games Movies
Music TV Shows
Torrents Graphics

Sitemap

RSS
 
Advanced Search
Last News
Site Info
Top Contributors:
  1    supper88 32766
  2    admin 32693
  3    Whisky 10080
  4    Shark_ 8911
  5    creativelivenew 8706
  6    whathesupa 2799
  7    candymypost 840
  8    hvnteam 629
  9    vuong87 3


Articles:
  This Hour: 0
  Today: 0
  This Month: 10
  All Time: 515561


Torrents:
  Today: 0
  Yesterday: 0
  All Time: 156684


Membership:
  Registered Today :0
  This Hour:0
  This Month:0
  Total:14
  Banned:1

{online}
{inform_torrent}
Friend:
We Recomend
Trend
Trend
Ad1

Search In Site

Music : Nirvana - Discography (1989-1996) [Japanese Original Pressing]
 
http://i67.fastpic.ru/big/2015/0830/b2/5c23bcf36ec960b015be86b2e2b745b2.jpg

Nirvana - Discography (1989-1996)
EAC | Flac(Image) + Cue + Log & MP3 CBR 320Kbps
6CD | MCA Victor | ~ 1969 or 765 Mb | Scans(png) -> 1028 Mb
Alternative Rock / Grunge

"Considered by many to be the leading lights of the Seattle grunge scene of the late 1980s/early 1990s, and perhaps the most influential rock band of Generations X & Y, Nirvana was a powerful trio of musicians who brought a unique aesthetic to a growing-stale rock scene..."

http://i66.fastpic.ru/big/2015/0830/7c/234fe440745863017754ae98f2d7327c.jpg

Nirvana at Wiki | Nirvana at Discogs | Nirvana at Allmusic | Nirvana HomePage

***********
Nirvana - Discography (1989-1996):

http://i71.fastpic.ru/big/2015/0830/e7/9e86d9b58c13cdf5152a89bb9c95bae7.jpg

CD01: Nirvana - Bleach (1989)
EAC | Flac(Image) + Cue + Log & MP3 CBR 320Kbps
1992 | MCA Victor, MVCG-93 | ~ 268 or 103 Mb | Scans(png) -> 75 Mb
Alternative Rock / Grunge

"This is one case where the legend really precedes the record itself. Cut for about 600 dollars in Jack Endino's studio over just a matter of days, this captures Nirvana at a formative stage, still indebted to the murk that became known as grunge, yet not quite finding their voice as songwriters. Which isn't to say that they were devoid of original material, since even at this stage Kurt Cobain illustrated signs of his considerable songcraft, particularly on the minor-key ballad "About a Girl" and the dense churn of "Blew." A few songs come close to that level, but that's more a triumph of sound than structure, as "Negative Creep" and "School" get by on attitude and churn, while the cover of "Love Buzz" winds up being one of the highlights because this gives a true menace to their sound, thanks to its menacing melody. The rest of it sinks into the sludge, as the group itself winds up succumbing to grinding sub-metallic riffing that has little power, due to lack of riffs and lack of a good drummer. Bleach is more than a historical curiosity since it does have its share of great songs, but it isn't a lost classic -- it's a debut from a band that shows potential but haven't yet achieved it.


by Stephen Thomas Erlewine, AMG
"


Tracklist:

01. Blew (Kurt Cobain) (2:55)
02. Floyd The Barber (Kurt Cobain) (2:18)
03. About A Girl (Kurt Cobain) (2:48)
04. School (Kurt Cobain) (2:42)
05. Love Buzz (Robbie van Leeuwen) (3:35)
06. Paper Cuts (Kurt Cobain) (4:06)
07. Negative Creep (Kurt Cobain) (2:55)
08. Scoff (Kurt Cobain) (4:10)
09. Swap Meet (Kurt Cobain) (3:03)
10. Mr. Moustache (Kurt Cobain) (3:24)
11. Sifting (Kurt Cobain) (5:24)
12. Big Cheese (Kurt Cobain, Krist Novoselic) (3:42)
13. Downer (Kurt Cobain) (1:45)

Exact Audio Copy V1.0 beta 3 from 29. August 2011

EAC extraction logfile from 10. September 2012, 19:12

Nirvana / Bleach (MVCG-93)

Used drive : HL-DT-STDVD+-RW GT60N Adapter: 0 ID: 1

Read mode : Secure
Utilize accurate stream : Yes
Defeat audio cache : Yes
Make use of C2 pointers : No

Read offset correction

: 103
Overread into Lead-In and Lead-Out : No
Fill up missing offset samples with silence : Yes
Delete leading and trailing silent blocks : No
Null samples used in CRC calculations : Yes
Used interface
: Native Win32 interface for Win NT & 2000

Used output format : User Defined Encoder
Selected bitrate : 128 kBit/s
Quality : High
Add ID3 tag : No
Command line compressor : C:\Program Files (x86)\Exact Audio Copy\Flac\flac.exe
Additional command line options : -V -8 -T "Genre=%genre%" -T "Artist=%artist%" -T "Title=%title%" -T "Album=%albumtitle%" -T "Date=%year%" -T "Tracknumber=%tracknr%" -T "Comment=%comment%" %source%

TOC of the extracted CD Track | Start | Length | Start sector | End sector
--1 | 0:00.37 | 2:54.45 | 37 | 13131 2 | 2:55.07 | 2:18.08 | 13132 | 23489 3 | 5:13.15 | 2:48.15 | 23490 | 36104 4 | 8:01.30 | 2:42.20 | 36105 | 48274 5 | 10:43.50 | 3:35.10 | 48275 | 64409 6 | 14:18.60 | 4:05.65 | 64410 | 82849 7 | 18:24.50 | 2:54.70 | 82850 | 95969 8 | 21:19.45 | 4:09.67 | 95970 | 114711 9 | 25:29.37 | 3:02.60 | 114712 | 128421
10 | 28:32.22 | 3:24.00 | 128422 | 143721
11 | 31:56.22 | 5:24.03 | 143722 | 168024
12 | 37:20.25 | 3:41.40 | 168025 | 184639
13 | 41:01.65 | 1:44.47 | 184640 | 192486

Range status and errors

Selected range Filename C:\Nirvana - Bleach (MVCG-93).wav Peak level 100.0 %
Extraction speed 4.5 X
Range quality 100.0 %
Test CRC 9C9387A1
Copy CRC 9C9387A1
Copy OK

No errors occurred


AccurateRip summary

Track 1 accurately ripped (confidence 7) [4F0ED591] (AR v1)
Track 2 accurately ripped (confidence 7) [3C564349] (AR v1)
Track 3 accurately ripped (confidence 7) [32471D48] (AR v1)
Track 4 accurately ripped (confidence 7) [4E50AD7C] (AR v1)
Track 5 accurately ripped (confidence 7) [A89F21EE] (AR v1)
Track 6 accurately ripped (confidence 7) [4D651DC5] (AR v1)
Track 7 accurately ripped (confidence 7) [8D8FFEC3] (AR v1)
Track 8 accurately ripped (confidence 7) [C65EC7FD] (AR v1)
Track 9 accurately ripped (confidence 7) [5A6F72F5] (AR v1)
Track 10 accurately ripped (confidence 7) [3983E39F] (AR v1)
Track 11 accurately ripped (confidence 7) [F1E13BDF] (AR v1)
Track 12 accurately ripped (confidence 7) [56EB89BD] (AR v1)
Track 13 accurately ripped (confidence 7) [E914F301] (AR v1)

All tracks accurately ripped

End of status report

==== Log checksum B84DCE677894737F2CD49A9D58F0859829D5FD9B9720AE888368D495436E318C ====

foobar2000 1.1.13 / Dynamic Range Meter 1.1.0
log date: 2012-09-24 18:54:10

Analyzed: Nirvana / Bleach (MVCG-93)

DR Peak RMS Duration Track

DR11 0.00 dB -12.90 dB 2:55 01-Blew (Kurt Cobain)
DR12 0.00 dB -14.18 dB 2:18 02-Floyd The Barber (Kurt Cobain)
DR12 -0.84 dB -14.36 dB 2:48 03-About A Girl (Kurt Cobain)
DR13 -0.43 dB -15.32 dB 2:42 04-School (Kurt Cobain)
DR12 -1.45 dB -14.39 dB 3:35 05-Love Buzz (Robbie van Leeuwen)
DR13 -0.67 dB -15.72 dB 4:06 06-Paper Cuts (Kurt Cobain)
DR12 -0.79 dB -14.75 dB 2:55 07-Negative Creep (Kurt Cobain)
DR13 -0.26 dB -15.00 dB 4:10 08-Scoff (Kurt Cobain)
DR11 -1.70 dB -14.52 dB 3:03 09-Swap Meet (Kurt Cobain)
DR12 -0.79 dB -13.62 dB 3:24 10-Mr. Moustache (Kurt Cobain)
DR14 -1.10 dB -16.18 dB 5:24 11-Sifting (Kurt Cobain)
DR13 -1.74 dB -16.29 dB 3:42 12-Big Cheese (Kurt Cobain, Krist Novoselic)
DR12 -1.04 dB -15.05 dB 1:45 13-Downer (Kurt Cobain)

Number of tracks: 13
Official DR value: DR12

Samplerate: 44100 Hz
Channels: 2
Bits per sample: 16
Bitrate: 852 kbps
Codec: FLAC

[CUETools log; Date: 10.09.2012 20:23:06; Version: 2.1.4]
Pregap length 00:00:37.
[CTDB TOCID: _Xa4H.uMivOZvpXzpgVX9zrcChI-] disk not present in database.
[AccurateRip ID: 0013c795-00c9cf10-9d0a060d] found.
Track [ CRC | V2 ] Status
01 [4f0ed591|d3a944d0] (7+0/9) Accurately ripped
02 [3c564349|e3711e8c] (7+0/9) Accurately ripped
03 [32471d48|091409cb] (7+0/9) Accurately ripped
04 [4e50ad7c|85e7ea69] (7+0/9) Accurately ripped
05 [a89f21ee|a002f819] (7+0/9) Accurately ripped
06 [4d651dc5|71a6ae3c] (7+0/9) Accurately ripped
07 [8d8ffec3|ddafff16] (7+0/9) Accurately ripped
08 [c65ec7fd|6d2314b1] (7+0/9) Accurately ripped
09 [5a6f72f5|94f59d7c] (7+0/9) Accurately ripped
10 [3983e39f|34311b04] (7+0/9) Accurately ripped
11 [f1e13bdf|89fb2a33] (7+0/9) Accurately ripped
12 [56eb89bd|6c3a5d50] (7+0/9) Accurately ripped
13 [e914f301|bedf1d05] (7+0/9) Accurately ripped
Offsetted by 122:
01 dd80cd3 (2/9) Accurately ripped
02 [ea1cf16d] (2/9) Accurately ripped
03 [6970d358] (2/9) Accurately ripped
04 [4d112216] (2/9) Accurately ripped
05 [42fad958] (2/9) Accurately ripped
06 [729d6d55] (2/9) Accurately ripped
07 [32b59c17] (2/9) Accurately ripped
08 [72552307] (2/9) Accurately ripped
09 [a273f295] (2/9) Accurately ripped
10 [976a97cb] (2/9) Accurately ripped
11 [1da3b32d] (2/9) Accurately ripped
12 [170f74af] (2/9) Accurately ripped
13 [485d47df] (2/9) Accurately ripped

Track Peak [ CRC32 ] [W/O NULL] [ LOG ]
-- 100,0 [9C9387A1] [D90DD173] CRC32
01 100,0 [9CF70BCC] [9E33937F]
02 100,0 [A51CBBDF] [05B495EE]
03 90,7 [2CB9BF6C] [3842A9A2]
04 95,1 [802C4501] [86CAEDD2]
05 84,6 [841FCE2C] [F72CB5B5]
06 92,5 [697C4025] [A5262C0D]
07 91,2 [6316C718] [23777668]
08 97,0 [9AEF4EDA] [32A5A7E0]
09 82,2 [F5BE3576] [C370256E]
10 91,3 [DD611C4F] [6C2344A7]
11 88,0 [616B5796] [81B95DE2]
12 81,8 [8528C352] [4041DD0D]
13 88,6 [62C1B856] [1AA6057C]

* * * * * *

http://i72.fastpic.ru/big/2015/0830/d6/a8eabc508965f1b5b91157e321ce43d6.jpg

CD02: Nirvana - Nevermind (1991) Repost
EAC | Flac(Image) + Cue + Log & MP3 CBR 320Kbps
MCA Victor, MVCG-67 | ~ 330 or 140 Mb | Scans(png) -> 176 Mb
Alternative Rock / Grunge

"Nevermind was never meant to change the world, but you can never predict when the Zeitgeist will hit, and Nirvana's second album turned out to be the place where alternative rock crashed into the mainstream. This wasn't entirely an accident, either, since Nirvana did sign with a major label, and they did release a record with a shiny surface, no matter how humongous the guitars sounded. And, yes, Nevermind is probably a little shinier than it should be, positively glistening with echo and fuzzbox distortion, especially when compared with the black-and-white murk of Bleach. This doesn't discount the record, since it's not only much harder than any mainstream rock of 1991, its character isn't on the surface, it's in the exhilaratingly raw music and haunting songs. Kurt Cobain's personal problems and subsequent suicide naturally deepen the dark undercurrents, but no matter how much anguish there is on Nevermind, it's bracing because he exorcizes those demons through his evocative wordplay and mangled screams -- and because the band has a tremendous, unbridled power that transcends the pain, turning into pure catharsis. And that's as key to the record's success as Cobain's songwriting, since Krist Novoselic and Dave Grohl help turn this into music that is gripping, powerful, and even fun (and, really, there's no other way to characterize "Territorial Pissings" or the surging "Breed"). In retrospect, Nevermind may seem a little too unassuming for its mythic status -- it's simply a great modern punk record -- but even though it may no longer seem life-changing, it is certainly life-affirming, which may just be better.


by Stephen Thomas Erlewine, AMG
"


Tracklist:

01. Smells Like Teen Spirit (Kurt Cobain, Dave Grohl, Krist Novoselic) (5:02)
02. In Bloom (Kurt Cobain) (4:15)
03. Come As You Are (Kurt Cobain) (3:39)
04. Breed (Kurt Cobain) (3:04)
05. Lithium (Kurt Cobain) (4:17)
06. Polly (Kurt Cobain) (2:57)
07. Territorial Pissings (Kurt Cobain. Intro lyrics by Chet Powers) (2:23)
08. Drain You (Kurt Cobain) (3:44)
09. Lounge Act (Kurt Cobain) (2:37)
10. Stay Away (Kurt Cobain) (3:32)
11. On A Plain (Kurt Cobain) (3:16)
12. Something In The Way (Kurt Cobain) & Endless, Nameless (Kurt Cobain, Dave Grohl, Krist Novoselic) (20:38)

Exact Audio Copy V1.0 beta 3 from 29. August 2011

EAC extraction logfile from 10. September 2012, 20:02

Nirvana / Nevermind (MVCG-67)

Used drive : HL-DT-STDVD+-RW GT60N Adapter: 0 ID: 1

Read mode : Secure
Utilize accurate stream : Yes
Defeat audio cache : Yes
Make use of C2 pointers : No

Read offset correction

: 103
Overread into Lead-In and Lead-Out : No
Fill up missing offset samples with silence : Yes
Delete leading and trailing silent blocks : No
Null samples used in CRC calculations : Yes
Used interface
: Native Win32 interface for Win NT & 2000

Used output format : User Defined Encoder
Selected bitrate : 128 kBit/s
Quality : High
Add ID3 tag : No
Command line compressor : C:\Program Files (x86)\Exact Audio Copy\Flac\flac.exe
Additional command line options : -V -8 -T "Genre=%genre%" -T "Artist=%artist%" -T "Title=%title%" -T "Album=%albumtitle%" -T "Date=%year%" -T "Tracknumber=%tracknr%" -T "Comment=%comment%" %source%

TOC of the extracted CD Track | Start | Length | Start sector | End sector
--1 | 0:00.37 | 5:01.45 | 37 | 22656 2 | 5:02.07 | 4:14.67 | 22657 | 41773 3 | 9:16.74 | 3:39.25 | 41774 | 58223 4 | 12:56.24 | 3:03.43 | 58224 | 71991 5 | 15:59.67 | 4:16.72 | 71992 | 91263 6 | 20:16.64 | 2:57.00 | 91264 | 104538 7 | 23:13.64 | 2:23.25 | 104539 | 115288 8 | 25:37.14 | 3:43.65 | 115289 | 132078 9 | 29:21.04 | 2:36.43 | 132079 | 143821
10 | 31:57.47 | 3:32.35 | 143822 | 159756
11 | 35:30.07 | 3:16.27 | 159757 | 174483
12 | 38:46.34 | 20:37.38 | 174484 | 267296

Range status and errors

Selected range Filename C:\Nirvana - Nevermind (MVCG-67).wav Peak level 97.7 %
Extraction speed 4.9 X
Range quality 100.0 %
Test CRC 7D115318
Copy CRC 7D115318
Copy OK

No errors occurred


AccurateRip summary

Track 1 accurately ripped (confidence 3) [E7A7514D] (AR v2)
Track 2 accurately ripped (confidence 3) [068C42C5] (AR v2)
Track 3 accurately ripped (confidence 3) [D4ACA869] (AR v2)
Track 4 accurately ripped (confidence 3) [1EE0CC70] (AR v2)
Track 5 accurately ripped (confidence 3) [7ECCA49D] (AR v2)
Track 6 accurately ripped (confidence 3) [589A7A21] (AR v2)
Track 7 accurately ripped (confidence 3) [60E16B7E] (AR v2)
Track 8 accurately ripped (confidence 3) [FA833B6E] (AR v2)
Track 9 accurately ripped (confidence 3) [2806BA9F] (AR v2)
Track 10 accurately ripped (confidence 3) [51DA2EF5] (AR v2)
Track 11 accurately ripped (confidence 3) [EFF810FC] (AR v2)
Track 12 accurately ripped (confidence 3) [4A3E777D] (AR v2)

All tracks accurately ripped

End of status report

==== Log checksum 58C731E82F288BF121450156B69F09F5F5EFDEE9914AE39F1894280B34C29827 ====

foobar2000 1.1.13 / Dynamic Range Meter 1.1.0
log date: 2012-09-24 18:53:38

Analyzed: Nirvana / Nevermind (MVCG-67)

DR Peak RMS Duration Track

DR11 -0.20 dB -12.83 dB 5:02 01-Smells Like Teen Spirit (Kurt Cobain, Dave Grohl, Krist Novoselic)
DR11 -0.20 dB -12.23 dB 4:15 02-In Bloom (Kurt Cobain)
DR12 -0.20 dB -13.67 dB 3:39 03-Come As You Are (Kurt Cobain)
DR11 -0.20 dB -12.72 dB 3:04 04-Breed (Kurt Cobain)
DR11 -0.20 dB -12.64 dB 4:17 05-Lithium (Kurt Cobain)
DR10 -1.40 dB -13.59 dB 2:57 06-Polly (Kurt Cobain)
DR12 -0.20 dB -12.94 dB 2:23 07-Territorial Pissings (Kurt Cobain. Intro lyrics by Chet Powers)
DR12 -0.20 dB -12.74 dB 3:44 08-Drain You (Kurt Cobain)
DR12 -0.72 dB -13.27 dB 2:37 09-Lounge Act (Kurt Cobain)
DR12 -0.20 dB -12.61 dB 3:32 10-Stay Away (Kurt Cobain)
DR12 -0.20 dB -13.44 dB 3:16 11-On A Plain (Kurt Cobain)
DR13 -0.20 dB -17.30 dB 20:38 12-Something In The Way (Kurt Cobain) & Endless, Nameless (Kurt Cobain, Dave Grohl, Krist Novoselic)

Number of tracks: 12
Official DR value: DR12

Samplerate: 44100 Hz
Channels: 2
Bits per sample: 16
Bitrate: 754 kbps
Codec: FLAC

[CUETools log; Date: 10.09.2012 20:22:32; Version: 2.1.4]
Pregap length 00:00:37.
[CTDB TOCID: ce7_MDDOZLUcEJWc_An91QogIY8-] disk not present in database.
[AccurateRip ID: 00151b2f-00c51d6d-ad0deb0c] found.
Track [ CRC | V2 ] Status
01 [af3c2a3c|e7a7514d] (06+03/28) Accurately ripped
02 [93b152ca|068c42c5] (06+03/29) Accurately ripped
03 [fa6209ed|d4aca869] (06+03/29) Accurately ripped
04 [78a56630|1ee0cc70] (06+03/29) Accurately ripped
05 [1783de42|7ecca49d] (06+03/29) Accurately ripped
06 [a49e0522|589a7a21] (06+03/29) Accurately ripped
07 [11431f1c|60e16b7e] (06+03/28) Accurately ripped
08 [215a2698|fa833b6e] (06+03/29) Accurately ripped
09 [022b4f08|2806ba9f] (06+03/29) Accurately ripped
10 [5319768b|51da2ef5] (06+03/29) Accurately ripped
11 [25447eae|eff810fc] (06+03/29) Accurately ripped
12 [f187f52c|4a3e777d] (05+03/27) Accurately ripped
Offsetted by -1772:
01 [57c8b6fc] (05/28) Accurately ripped
02 [880d99b6] (06/29) Accurately ripped
03 [cbf3683d] (06/29) Accurately ripped
04 [46e8df54] (06/29) Accurately ripped
05 [a4709a7e] (06/29) Accurately ripped
06 [5f7670c6] (06/29) Accurately ripped
07 [d3b9f718] (05/28) Accurately ripped
08 [745ef115] (06/29) Accurately ripped
09 [e1ea18ef] (06/29) Accurately ripped
10 [14c61ddf] (06/29) Accurately ripped
11 [9712e80a] (06/29) Accurately ripped
12 [2deb0764] (05/27) Accurately ripped
Offsetted by -321:
01 [3e993ccc] (05/28) Accurately ripped
02 [daf9840b] (05/29) Accurately ripped
03 [a745a981] (05/29) Accurately ripped
04 [c788cbeb] (05/29) Accurately ripped
05 [fc06033f] (05/29) Accurately ripped
06 [debc448d] (05/29) Accurately ripped
07 [abce43af] (05/28) Accurately ripped
08 [fd996d6b] (05/29) Accurately ripped
09 [d4367c30] (05/29) Accurately ripped
10 [eaa052fa] (05/29) Accurately ripped
11 [9f971b03] (05/29) Accurately ripped
12 [fbbf7776] (05/27) Accurately ripped
Offsetted by 29:
01 [1ab4f3ec] (05/28) Accurately ripped
02 [3a4fe2ad] (05/29) Accurately ripped
03 [603a8a8a] (05/29) Accurately ripped
04 [0da3dbd8] (05/29) Accurately ripped
05 [278e70d9] (05/29) Accurately ripped
06 [57974cc3] (05/29) Accurately ripped
07 [8128f803] (05/28) Accurately ripped
08 [3fec20f0] (05/29) Accurately ripped
09 [a3657823] (05/29) Accurately ripped
10 [793f85b8] (05/29) Accurately ripped
11 [1e34424d] (05/29) Accurately ripped
12 [cb200d4a] (05/27) Accurately ripped

Track Peak [ CRC32 ] [W/O NULL] [ LOG ]
-- 97,7 [7D115318] [4AC94904] CRC32
01 97,7 [FFB1DC62] [9AC35937]
02 97,7 [AB594832] [65E01994]
03 97,7 [CC823A01] [65C1A038]
04 97,7 [258EE156] [95E619EA]
05 97,7 [1C0D5CA4] [2FA04E6D]
06 85,1 [86C30A74] [A911ADEE]
07 97,7 [F9376D1F] [64F8C902]
08 97,7 [0549D012] [6CB7A0F1]
09 92,0 [34533287] [28737722]
10 97,7 6C26492 [85664A4A]
11 97,7 [AE7BD12C] C63E57F
12 97,6 [7C11A8D2] [A4753304]

* * * * * *

http://i65.fastpic.ru/big/2015/0830/88/51b743f595da63d9216660fb7d37f688.jpg

CD03: Nirvana - Incesticide (1992)
EAC | Flac(Image) + Cue + Log & MP3 CBR 320Kbps
MCA Victor, MVCG-100 | ~ 308 or 105 Mb | Scans(png) -> 114 Mb
Alternative Rock / Grunge

"Buying time and thwarting bootleggers, Nirvana and DGC released the rarities compilation Incesticide toward the end of 1992. Like any odds'n'sods collection, this is uneven, but that's its charm since it captures Nirvana's character better than any official album. After all, this was a band that was born equally from '70s sludge metal, bubblegum pop, post-punk artiness, and indie rock inclusiveness, each of which are apparent on this collection. There are some non-entities here, particularly on the second side, but the plodding sub-metallic grind was part of their identity, one part of their multi-faceted character. Nirvana meant everything to everyone, from the jangle pop veterans to the garage rock ravers that worshipped the Stooges to stoner metal fetishes and indie rock bed-sits that adopted Sebadoh just as they outgrew Morrissey -- everybody loved Nirvana, and there's something for every kind fan here, thanks to murky sludge, Devo and Vaseline covers, BBC sessions, instrumentals, and limited-edition singles, plus sub-Melvins goop, everything visceral where Bleach was tame. Nevermind doesn't capture this freewheeling indie spirit but Incesticide does, piling on some essentials in the meantime -- the pummeling "Dive," the childhood snapshot "Sliver," the terrific forgotten indie pop tune "Been a Son," and "Aneurysm," perhaps the greatest single song the group ever recorded. Yeah, there's some filler here, but this is the sound of what Nirvana was actually like.


by Stephen Thomas Erlewine, AMG
"


Tracklist:

01. Dive (Kurt Cobain, Krist Novoselic. Madison, WI, Smart Studios, April 2, 1990 - April 6, 1990) (3:56)
02. Sliver (Kurt Cobain, Krist Novoselic. Seattle, WA, Reciprocal Recording Studios, July 11, 1990) (2:16)
03. Stain (Kurt Cobain, Krist Novoselic. Seattle, WA, Music Source Studios, September 1989) (2:41)
04. Been A Son (Kurt Cobain, Krist Novoselic. London, England, Maida Vale Studio 4, November 9, 1991) (1:56)
05. Turnaround (Mark Mothersbaugh, Gerald Casale. London, England, Maida Vale Studio 3, The John Peel Session, October 21, 1990) (2:19)
06. Molly's Lips (Eugene Kelly, Frances McKee. London, England, Maida Vale Studio 3, The John Peel Session, October 21, 1990) (1:54)
07. Son Of A Gun (Eugene Kelly, Frances McKee. London, England, Maida Vale Studio 3, The John Peel Session, October 21, 1990) (2:48)
08. (New Wave) Polly (Kurt Cobain, Krist Novoselic, David Grohl. London, England, Maida Vale Studio 4, The Mark Goodier Session, November 9, 1991) (1:48)
09. Beeswax (Kurt Cobain. First studio demo tape. Seattle, WA, Reciprocal Recording Studios, January 23, 1988) (2:50)
10. Downer (Kurt Cobain. First studio demo tape. Seattle, WA, Reciprocal Recording Studios, January 23, 1988) (1:44)
11. Mexican Seafood (Kurt Cobain. First studio demo tape. Seattle, WA, Reciprocal Recording Studios, January 23, 1988) (1:55)
12. Hairspray Queen (Kurt Cobain. First studio demo tape. Seattle, WA, Reciprocal Recording Studios, January 23, 1988) (4:14)
13. Aero Zeppelin (Kurt Cobain, Krist Novoselic. First studio demo tape. Seattle, WA, Reciprocal Recording Studios, January 23, 1988) (4:42)
14. Big Long Now (Kurt Cobain, Krist Novoselic. Seattle, WA, Reciprocal Recording Studios, The Bleach recording session, December 1988 - January 1989) (5:03)
15. Aneurysm (Kurt Cobain, Krist Novoselic, David Grohl. London, England, Maida Vale Studio 4, The Mark Goodier Session, November 9, 1991) (4:38)

Exact Audio Copy V1.0 beta 3 from 29. August 2011

EAC extraction logfile from 13. September 2012, 18:15

Nirvana / Incesticide (MVCG-100)

Used drive : HL-DT-STDVD+-RW GT60N Adapter: 0 ID: 1

Read mode : Secure
Utilize accurate stream : Yes
Defeat audio cache : Yes
Make use of C2 pointers : No

Read offset correction

: 103
Overread into Lead-In and Lead-Out : No
Fill up missing offset samples with silence : Yes
Delete leading and trailing silent blocks : No
Null samples used in CRC calculations : Yes
Used interface
: Native Win32 interface for Win NT & 2000

Used output format : User Defined Encoder
Selected bitrate : 128 kBit/s
Quality : High
Add ID3 tag : No
Command line compressor : C:\Program Files (x86)\Exact Audio Copy\Flac\flac.exe
Additional command line options : -V -8 -T "Genre=%genre%" -T "Artist=%artist%" -T "Title=%title%" -T "Album=%albumtitle%" -T "Date=%year%" -T "Tracknumber=%tracknr%" -T "Comment=%comment%" %source%

TOC of the extracted CD Track | Start | Length | Start sector | End sector
--1 | 0:00.37 | 3:55.40 | 37 | 17701 2 | 3:56.02 | 2:16.35 | 17702 | 27936 3 | 6:12.37 | 2:40.70 | 27937 | 40006 4 | 8:53.32 | 1:55.45 | 40007 | 48676 5 | 10:49.02 | 2:19.17 | 48677 | 59118 6 | 13:08.19 | 1:54.13 | 59119 | 67681 7 | 15:02.32 | 2:48.32 | 67682 | 80313 8 | 17:50.64 | 1:47.58 | 80314 | 88396 9 | 19:38.47 | 2:50.10 | 88397 | 101156
10 | 22:28.57 | 1:43.65 | 101157 | 108946
11 | 24:12.47 | 1:55.30 | 108947 | 117601
12 | 26:08.02 | 4:13.47 | 117602 | 136623
13 | 30:21.49 | 4:41.40 | 136624 | 157738
14 | 35:03.14 | 5:03.35 | 157739 | 180498
15 | 40:06.49 | 4:37.65 | 180499 | 201338

Range status and errors

Selected range Filename C:\Nirvana - Incesticide (MVCG-100).wav Peak level 100.0 %
Extraction speed 4.4 X
Range quality 99.9 %
Test CRC FE52FC10
Copy CRC FE52FC10
Copy OK

No errors occurred


AccurateRip summary

Track 1 accurately ripped (confidence 2) [D635616E] (AR v1)
Track 2 accurately ripped (confidence 2) [FF76FFF1] (AR v1)
Track 3 accurately ripped (confidence 2) [CF452576] (AR v1)
Track 4 accurately ripped (confidence 2) [4E34A6C4] (AR v1)
Track 5 accurately ripped (confidence 2) [AFAB4DF2] (AR v1)
Track 6 accurately ripped (confidence 2) [1257F7A8] (AR v1)
Track 7 accurately ripped (confidence 2) [55DF6713] (AR v1)
Track 8 accurately ripped (confidence 2) [F7B5C253] (AR v1)
Track 9 accurately ripped (confidence 2) [7F2FD3B1] (AR v1)
Track 10 accurately ripped (confidence 2) [799D914F] (AR v1)
Track 11 accurately ripped (confidence 2) [111F9FF5] (AR v1)
Track 12 accurately ripped (confidence 2) [8E5399DA] (AR v1)
Track 13 accurately ripped (confidence 2) [7CFB66FA] (AR v1)
Track 14 accurately ripped (confidence 2) [6A02FB37] (AR v1)
Track 15 accurately ripped (confidence 2) [69B739B1] (AR v1)

All tracks accurately ripped

End of status report

==== Log checksum 8CCD4829986B31E98D0A80CA7904D24B4C052E88314F7634FD9AB51833C4F25D ====

foobar2000 1.1.13 / Dynamic Range Meter 1.1.0
log date: 2012-09-24 18:53:58

Analyzed: Nirvana / Incesticide (MVCG-100)

DR Peak RMS Duration Track

DR11 0.00 dB -11.91 dB 3:56 01-Dive (Kurt Cobain, Krist Novoselic. Madison, WI, Smart Studios, April 2, 1990 - April 6, 1990)
DR11 0.00 dB -12.06 dB 2:16 02-Sliver (Kurt Cobain, Krist Novoselic. Seattle, WA, Reciprocal Recording Studios, July 11, 1990)
DR12 0.00 dB -12.92 dB 2:41 03-Stain (Kurt Cobain, Krist Novoselic. Seattle, WA, Music Source Studios, September 1989)
DR12 0.00 dB -12.46 dB 1:56 04-Been A Son (Kurt Cobain, Krist Novoselic. London, England, Maida Vale Studio 4, November 9, 1991)
DR13 0.00 dB -13.79 dB 2:19 05-Turnaround (Mark Mothersbaugh, Gerald Casale. London, England, Maida Vale Studio 3, The John Peel Session, October 21, 1990)
DR12 0.00 dB -13.24 dB 1:54 06-Molly's Lips (Eugene Kelly, Frances McKee. London, England, Maida Vale Studio 3, The John Peel Session, October 21, 1990)
DR11 0.00 dB -12.26 dB 2:48 07-Son Of A Gun (Eugene Kelly, Frances McKee. London, England, Maida Vale Studio 3, The John Peel Session, October 21, 1990)
DR12 0.00 dB -13.01 dB 1:48 08-(New Wave) Polly (Kurt Cobain, Krist Novoselic, David Grohl. London, England, Maida Vale Studio 4, The Mark Goodier Session, November 9, 1991)
DR13 0.00 dB -13.97 dB 2:50 09-Beeswax (Kurt Cobain. First studio demo tape. Seattle, WA, Reciprocal Recording Studios, January 23, 1988)
DR11 -0.24 dB -13.09 dB 1:44 10-Downer (Kurt Cobain. First studio demo tape. Seattle, WA, Reciprocal Recording Studios, January 23, 1988)
DR11 0.00 dB -12.43 dB 1:55 11-Mexican Seafood (Kurt Cobain. First studio demo tape. Seattle, WA, Reciprocal Recording Studios, January 23, 1988)
DR12 0.00 dB -13.16 dB 4:14 12-Hairspray Queen (Kurt Cobain. First studio demo tape. Seattle, WA, Reciprocal Recording Studios, January 23, 1988)
DR11 0.00 dB -12.78 dB 4:42 13-Aero Zeppelin (Kurt Cobain, Krist Novoselic. First studio demo tape. Seattle, WA, Reciprocal Recording Studios, January 23, 1988)
DR14 0.00 dB -16.14 dB 5:03 14-Big Long Now (Kurt Cobain, Krist Novoselic. Seattle, WA, Reciprocal Recording Studios, The Bleach recording session, December 1988 - January 1989)
DR11 0.00 dB -12.06 dB 4:38 15-Aneurysm (Kurt Cobain, Krist Novoselic, David Grohl. London, England, Maida Vale Studio 4, The Mark Goodier Session, November 9, 1991)

Number of tracks: 15
Official DR value: DR12

Samplerate: 44100 Hz
Channels: 2
Bits per sample: 16
Bitrate: 935 kbps
Codec: FLAC

[CUETools log; Date: 13.09.2012 19:02:27; Version: 2.1.4]
Pregap length 00:00:37.
[CTDB TOCID: Slx3DAE_1_xmTCY0smqtJtLlFr0-] disk not present in database.
[AccurateRip ID: 0015e0b3-00f914e8-af0a7c0f] found.
Track [ CRC | V2 ] Status
01 [d635616e|cead1822] (2+0/4) Accurately ripped
02 [ff76fff1|96edb75d] (2+0/4) Accurately ripped
03 [cf452576|dee9bc9c] (2+0/4) Accurately ripped
04 [4e34a6c4|66574f95] (2+0/4) Accurately ripped
05 [afab4df2|0b03f824] (2+0/4) Accurately ripped
06 [1257f7a8|f283f9ec] (2+0/4) Accurately ripped
07 [55df6713|db8b7d18] (2+0/4) Accurately ripped
08 [f7b5c253|c10e8019] (2+0/4) Accurately ripped
09 [7f2fd3b1|9d2ed902] (2+0/4) Accurately ripped
10 [799d914f|80bb3c51] (2+0/4) Accurately ripped
11 [111f9ff5|eb17a036] (2+0/4) Accurately ripped
12 [8e5399da|701cb5d8] (2+0/4) Accurately ripped
13 [7cfb66fa|4c1a5533] (2+0/4) Accurately ripped
14 [6a02fb37|68c40d7f] (2+0/4) Accurately ripped
15 [69b739b1|0997a240] (2+0/4) Accurately ripped

Track Peak [ CRC32 ] [W/O NULL] [ LOG ]
-- 100,0 [FE52FC10] [22EE0B23] CRC32
01 100,0 [9CD6E702] [1EE41AA3]
02 100,0 [1B59DB49] [705A817B]
03 100,0 [AC86C1C8] [CDCAE719]
04 100,0 [1F1F5D6D] [FDE732C7]
05 100,0 [7FA5BF82] [DDF62823]
06 100,0 [3491B168] [C676E7C1]
07 100,0 [079C6C9F] [33FFEE0F]
08 100,0 [D5FCF756] [30F35266]
09 100,0 [5711AB74] [3442132E]
10 97,3 [8A30BAAE] [C79355E9]
11 100,0 [AAC5CE4C] [421EDE1E]
12 100,0 [168424C1] [0069EA00]
13 100,0 [13092691] 1674DB5
14 100,0 A0B3259 [7345B36C]
15 100,0 [26E0B107] C705CC7

* * * * * *

http://i65.fastpic.ru/big/2015/0830/28/5008b50992893a5148041aeedec72528.jpg

CD04: Nirvana - In Utero (1993)
EAC | Flac(Image) + Cue + Log & MP3 CBR 320Kbps
MCA Victor, MVCG-126 | ~ 332 or 163 Mb | Scans(png) -> 232 Mb
Alternative Rock / Grunge

"Nirvana probably hired Steve Albini to produce In Utero with the hopes of creating their own Surfer Rosa, or at least shoring up their indie cred after becoming a pop phenomenon with a glossy punk record. In Utero, of course, turned out to be their last record, and it's hard not to hear it as Kurt Cobain's suicide note, since Albini's stark, uncompromising sound provides the perfect setting for Cobain's bleak, even nihilistic, lyrics. Even if the album wasn't a literal suicide note, it was certainly a conscious attempt to shed their audience -- an attempt that worked, by the way, since the record had lost its momentum when Cobain died in the spring of 1994. Even though the band tempered some of Albini's extreme tactics in a remix, the record remains a deliberately alienating experience, front-loaded with many of its strongest songs, then descending into a series of brief, dissonant squalls before concluding with "All Apologies," which only gets sadder with each passing year. Throughout it all, Cobain's songwriting is typically haunting, and its best moments rank among his finest work, but the over-amped dynamicism of the recording seems like a way to camouflage his dispiritedness -- as does the fact that he consigned such great songs as "Verse Chorus Verse" and "I Hate Myself and Want to Die" to compilations, when they would have fit, even illuminated the themes of In Utero. Even without those songs, In Utero remains a shattering listen, whether it's viewed as Cobain's farewell letter or self-styled audience alienation. Few other records are as willfully difficult as this.


by Stephen Thomas Erlewine, AMG
"


Tracklist:

01. Serve The Servants (Kurt Cobain) (3:37)
02. Scentless Apprentice (Kurt Cobain, Dave Grohl, Krist Novoselic) (3:48)
03. Heart-Shaped Box (Kurt Cobain) (4:41)
04. Rape Me (Kurt Cobain) (2:50)
05. Frances Farmer Will Have Her Revenge On Seattle (Kurt Cobain) (4:10)
06. Dumb (Kurt Cobain) (2:32)
07. Very Ape (Kurt Cobain) (1:56)
08. Milk It (Kurt Cobain) (3:55)
09. Pennyroyal Tea (Kurt Cobain) (3:37)
10. Radio Friendly Unit Shifter (Kurt Cobain) (4:51)
11. tourette's (Kurt Cobain) (1:35)
12. All Apologies (Kurt Cobain) & Gallons Of Rubbing Alcohol Flow Through The Strip (Kurt Cobain, Dave Grohl, Krist Novoselic) (31:35)

Exact Audio Copy V1.0 beta 3 from 29. August 2011

EAC extraction logfile from 8. September 2012, 16:23

Nirvana / In Utero (MVCG-126)

Used drive : HL-DT-STDVD+-RW GT60N Adapter: 0 ID: 1

Read mode : Secure
Utilize accurate stream : Yes
Defeat audio cache : Yes
Make use of C2 pointers : No

Read offset correction

: 103
Overread into Lead-In and Lead-Out : No
Fill up missing offset samples with silence : Yes
Delete leading and trailing silent blocks : No
Null samples used in CRC calculations : Yes
Used interface
: Native Win32 interface for Win NT & 2000

Used output format : User Defined Encoder
Selected bitrate : 128 kBit/s
Quality : High
Add ID3 tag : No
Command line compressor : C:\Program Files (x86)\Exact Audio Copy\Flac\flac.exe
Additional command line options : -V -8 -T "Genre=%genre%" -T "Artist=%artist%" -T "Title=%title%" -T "Album=%albumtitle%" -T "Date=%year%" -T "Tracknumber=%tracknr%" -T "Comment=%comment%" %source%

TOC of the extracted CD Track | Start | Length | Start sector | End sector
--1 | 0:00.37 | 3:36.42 | 37 | 16278 2 | 3:37.04 | 3:48.13 | 16279 | 33391 3 | 7:25.17 | 4:41.05 | 33392 | 54471 4 | 12:06.22 | 2:50.07 | 54472 | 67228 5 | 14:56.29 | 4:09.45 | 67229 | 85948 6 | 19:05.74 | 2:31.60 | 85949 | 97333 7 | 21:37.59 | 1:55.50 | 97334 | 106008 8 | 23:33.34 | 3:54.58 | 106009 | 123616 9 | 27:28.17 | 3:37.12 | 123617 | 139903
10 | 31:05.29 | 4:51.10 | 139904 | 161738
11 | 35:56.39 | 1:35.15 | 161739 | 168878
12 | 37:31.54 | 31:34.58 | 168879 | 310986

Range status and errors

Selected range Filename C:\Nirvana - In Utero (MVCG-126).wav Peak level 97.7 %
Extraction speed 5.2 X
Range quality 100.0 %
Test CRC C775DBE9
Copy CRC C775DBE9
Copy OK

No errors occurred


AccurateRip summary

Track 1 accurately ripped (confidence 6) [A4943E02] (AR v1)
Track 2 accurately ripped (confidence 7) [AB6BCFAE] (AR v1)
Track 3 accurately ripped (confidence 7) [1C867409] (AR v1)
Track 4 accurately ripped (confidence 7) [EA62E782] (AR v1)
Track 5 accurately ripped (confidence 7) [4FAA140F] (AR v1)
Track 6 accurately ripped (confidence 7) [E821299F] (AR v1)
Track 7 accurately ripped (confidence 7) [E40CAC88] (AR v1)
Track 8 accurately ripped (confidence 7) [8C596400] (AR v1)
Track 9 accurately ripped (confidence 7) [023CC288] (AR v1)
Track 10 accurately ripped (confidence 7) [C614A2C9] (AR v1)
Track 11 accurately ripped (confidence 7) [25A20924] (AR v1)
Track 12 accurately ripped (confidence 8) [9A5D32DA] (AR v1)

All tracks accurately ripped

End of status report

==== Log checksum 76E4EBFF1F64DE174299270A34C967612210327B686CB36F6346100F10C8FAE1 ====

foobar2000 1.1.13 / Dynamic Range Meter 1.1.0
log date: 2012-09-24 18:54:26

Analyzed: Nirvana / In Utero (MVCG-126)

DR Peak RMS Duration Track

DR10 -0.20 dB -10.73 dB 3:37 01-Serve The Servants (Kurt Cobain)
DR9 -0.20 dB -10.01 dB 3:48 02-Scentless Apprentice (Kurt Cobain, Dave Grohl, Krist Novoselic)
DR9 -0.20 dB -11.06 dB 4:41 03-Heart-Shaped Box (Kurt Cobain)
DR9 -0.20 dB -10.78 dB 2:50 04-Rape Me (Kurt Cobain)
DR9 -0.20 dB -10.60 dB 4:10 05-Frances Farmer Will Have Her Revenge On Seattle (Kurt Cobain)
DR10 -0.20 dB -11.60 dB 2:32 06-Dumb (Kurt Cobain)
DR10 -0.20 dB -10.80 dB 1:56 07-Very Ape (Kurt Cobain)
DR9 -0.19 dB -10.87 dB 3:55 08-Milk It (Kurt Cobain)
DR9 -0.20 dB -11.52 dB 3:37 09-Pennyroyal Tea (Kurt Cobain)
DR9 -0.20 dB -11.19 dB 4:51 10-Radio Friendly Unit Shifter (Kurt Cobain)
DR8 -0.20 dB -10.25 dB 1:35 11-tourette's (Kurt Cobain)
DR11 -0.20 dB -17.18 dB 31:35 12-All Apologies (Kurt Cobain) & Gallons Of Rubbing Alcohol Flow Through The Strip (Kurt Cobain, Dave Grohl, Krist Novoselic)

Number of tracks: 12
Official DR value: DR9

Samplerate: 44100 Hz
Channels: 2
Bits per sample: 16
Bitrate: 653 kbps
Codec: FLAC

[CUETools log; Date: 08.09.2012 16:47:50; Version: 2.1.4]
Pregap length 00:00:37.
[CTDB TOCID: 3Da8FonnJfmoK6DrZdvzHfxLPYw-] disk not present in database.
[AccurateRip ID: 0014d743-00c7c4a9-b210320c] found.
Track [ CRC | V2 ] Status
01 [a4943e02|a316d2f5] (06+00/17) Accurately ripped
02 [ab6bcfae|49af6240] (07+00/16) Accurately ripped
03 [1c867409|4eba557e] (07+00/18) Accurately ripped
04 [ea62e782|9d3b1877] (07+00/18) Accurately ripped
05 [4faa140f|9940280e] (07+00/18) Accurately ripped
06 [e821299f|0944876e] (07+00/16) Accurately ripped
07 [e40cac88|546882c0] (07+00/18) Accurately ripped
08 [8c596400|fa2852a7] (07+00/18) Accurately ripped
09 [023cc288|9421ffff] (07+00/18) Accurately ripped
10 [c614a2c9|897d4450] (07+00/18) Accurately ripped
11 [25a20924|c10c5462] (07+00/18) Accurately ripped
12 [9a5d32da|e5bf2854] (08+00/18) Accurately ripped
Offsetted by 260:
01 [ae7bde9d] (06/17) Accurately ripped
02 [06a4268a] (06/16) Accurately ripped
03 [09c7bd6d] (06/18) Accurately ripped
04 [6ab0e644] (06/18) Accurately ripped
05 [eee69000] (06/18) Accurately ripped
06 [441f8080] (06/16) Accurately ripped
07 [48b403bb] (06/18) Accurately ripped
08 [4e1f891f] (06/18) Accurately ripped
09 e13ef8c (06/18) Accurately ripped
10 [83fe10ce] (06/18) Accurately ripped
11 [eb4768bc] (06/18) Accurately ripped
12 [f7269a7f] (06/18) Accurately ripped
Offsetted by 322:
01 [f75d21b8] (03/17) Accurately ripped
02 [a695560d] (03/16) Accurately ripped
03 [8ad4be92] (03/18) Accurately ripped
04 4d8fa5c (03/18) Accurately ripped
05 [c74be295] (03/18) Accurately ripped
06 [0bf52fa1] (03/16) Accurately ripped
07 [770c17b8] (03/18) Accurately ripped
08 [90f85e27] (03/18) Accurately ripped
09 [1c84a87b] (03/18) Accurately ripped
10 [25c449ee] (03/18) Accurately ripped
11 [faf05fcf] (03/18) Accurately ripped
12 [f133bfff] (04/18) Accurately ripped

Track Peak [ CRC32 ] [W/O NULL] [ LOG ]
-- 97,7 [C775DBE9] [D40AE87C] CRC32
01 97,7 [381D1CE9] [A6291C53]
02 97,7 [875C1D5A] [898EA432]
03 97,7 [DFD0E8C7] [E3ED16BF]
04 97,7 [D458B913] [9D27D9D1]
05 97,7 [0B1EBD48] [FB24936E]
06 97,7 [6A6D4E4B] [61E4319E]
07 97,7 [D7466A2C] [C7B96B1B]
08 97,7 [F53A6EB7] [4E4B0B17]
09 97,7 [AE7AE3E3] [5E0A2522]
10 97,7 [9C15E41F] [8187D6B0]
11 97,7 [08631EFD] [50F2BDBA]
12 97,7 [C2B2243A] [06D95C4F]

* * * * * *

http://i69.fastpic.ru/big/2015/0830/a6/debcc21bb27197eed2e570b7c4f2e8a6.jpg

CD05: Nirvana - MTV Unplugged In New York (1994)
EAC | Flac(Image) + Cue + Log & MP3 CBR 320Kbps
MCA Victor, MVCG-163 | ~ 335 or 127 Mb | Scans(png) -> 201 Mb
Alternative Rock / Grunge

"If In Utero is a suicide note, MTV Unplugged in New York is a message from beyond the grave, a summation of Kurt Cobain's talents and pain so fascinating, it's hard to listen to repeatedly. Is it the choice of material or the spare surroundings that make it so effective? Well, it's certainly a combination of both, how the version of the Vaselines' "Jesus Doesn't Want Me for a Sunbeam" or the three covers of Meat Puppets II songs mean as much as "All Apologies" or "Something in the Way." This, in many senses, isn't just an abnormal Nirvana record, capturing them in their sincerest desire to be R.E.M. circa Automatic for the People, it's the Nirvana record that nobody, especially Kurt, wanted revealed. It's a nakedly emotional record, unintentionally so, as the subtext means more than the main themes of how Nirvana wanted to prove its worth and diversity, showcasing the depth of their songwriting. As it turns out, it accomplishes its goals rather too well; this is a band, and songwriter, on the verge of discovering a new sound and style. Then, there's the subtexts, as Kurt's hurt and suicidal impulses bubble to the surface even as he's trying to suppress them. Few records are as unblinkingly bare and naked as this, especially albums recorded by their peers. No other band could have offered covers of David Bowie's "The Man Who Sold the World" and the folk standard "Where Did You Sleep Last Night" on the same record, turning in chilling performances of both -- performances that reveal as much as their original songs.


by Stephen Thomas Erlewine, AMG
"


Tracklist:

01. About A Girl (Kurt Cobain) (3:38)
02. Come As You Are (Kurt Cobain) (4:14)
03. Jesus Doesn't Want Me For A Sunbeam (Eugene Kelly, Francis McKee) (4:37)
04. The Man Who Sold The World (David Bowie) (4:21)
05. Pennyroyal Tea (Kurt Cobain) (3:40)
06. Dumb (Kurt Cobain) (2:53)
07. Polly (Kurt Cobain) (3:16)
08. On A Plain (Kurt Cobain) (3:45)
09. Something In The Way (Kurt Cobain) (4:02)
10. Plateau (Curt Kirkwood) (3:38)
11. Oh Me (Curt Kirkwood) (3:26)
12. Lake Of Fire (Curt Kirkwood) (2:56)
13. All Apologies (Kurt Cobain) (4:23)
14. Where Did You Sleep Last Night (Huddie Ledbetter) (5:08)

Exact Audio Copy V1.0 beta 3 from 29. August 2011

EAC extraction logfile from 13. September 2012, 18:42

Nirvana / MTV Unplugged In New York (MVCG-163)

Used drive : HL-DT-STDVD+-RW GT60N Adapter: 0 ID: 1

Read mode : Secure
Utilize accurate stream : Yes
Defeat audio cache : Yes
Make use of C2 pointers : No

Read offset correction

: 103
Overread into Lead-In and Lead-Out : No
Fill up missing offset samples with silence : Yes
Delete leading and trailing silent blocks : No
Null samples used in CRC calculations : Yes
Used interface
: Native Win32 interface for Win NT & 2000

Used output format : User Defined Encoder
Selected bitrate : 128 kBit/s
Quality : High
Add ID3 tag : No
Command line compressor : C:\Program Files (x86)\Exact Audio Copy\Flac\flac.exe
Additional command line options : -V -8 -T "Genre=%genre%" -T "Artist=%artist%" -T "Title=%title%" -T "Album=%albumtitle%" -T "Date=%year%" -T "Tracknumber=%tracknr%" -T "Comment=%comment%" %source%

TOC of the extracted CD Track | Start | Length | Start sector | End sector
--1 | 0:00.37 | 3:37.73 | 37 | 16384 2 | 3:38.35 | 4:13.67 | 16385 | 35426 3 | 7:52.27 | 4:37.25 | 35427 | 56226 4 | 12:29.52 | 4:21.03 | 56227 | 75804 5 | 16:50.55 | 3:40.37 | 75805 | 92341 6 | 20:31.17 | 2:52.73 | 92342 | 105314 7 | 23:24.15 | 3:16.35 | 105315 | 120049 8 | 26:40.50 | 3:44.57 | 120050 | 136906 9 | 30:25.32 | 4:01.38 | 136907 | 155019
10 | 34:26.70 | 3:38.07 | 155020 | 171376
11 | 38:05.02 | 3:26.15 | 171377 | 186841
12 | 41:31.17 | 2:55.70 | 186842 | 200036
13 | 44:27.12 | 4:23.20 | 200037 | 219781
14 | 48:50.32 | 5:08.00 | 219782 | 242881

Range status and errors

Selected range Filename C:\Nirvana - MTV Unplugged In New York (MVCG-163).wav Peak level 96.2 %
Extraction speed 4.8 X
Range quality 100.0 %
Test CRC 11C98897
Copy CRC 11C98897
Copy OK

No errors occurred


AccurateRip summary

Track 1 accurately ripped (confidence 8) [D95580AF] (AR v1)
Track 2 accurately ripped (confidence 8) [36B4C281] (AR v1)
Track 3 accurately ripped (confidence 8) [211AD4C3] (AR v1)
Track 4 accurately ripped (confidence 8) [1A0E13B7] (AR v1)
Track 5 accurately ripped (confidence 8) [4DE53DE0] (AR v1)
Track 6 accurately ripped (confidence 8) [C148EA00] (AR v1)
Track 7 accurately ripped (confidence 8) [F856AAE1] (AR v1)
Track 8 accurately ripped (confidence 8) [6CB8660F] (AR v1)
Track 9 accurately ripped (confidence 8) [36280B89] (AR v1)
Track 10 accurately ripped (confidence 8) [6AA4AA02] (AR v1)
Track 11 accurately ripped (confidence 8) [5C150973] (AR v1)
Track 12 accurately ripped (confidence 8) [EE3E30BC] (AR v1)
Track 13 accurately ripped (confidence 8) [4D83E9E8] (AR v1)
Track 14 accurately ripped (confidence 8) [65B7DC60] (AR v1)

All tracks accurately ripped

End of status report

==== Log checksum D450946CEF624EA96E0B50AFF6613279743B6F573D8E7A3D46A45C5019C5ACD4 ====

foobar2000 1.1.13 / Dynamic Range Meter 1.1.0
log date: 2012-09-24 18:54:38

Analyzed: Nirvana / MTV Unplugged In New York (MVCG-163)

DR Peak RMS Duration Track

DR10 -0.99 dB -12.49 dB 3:38 01-About A Girl (Kurt Cobain)
DR9 -0.67 dB -11.80 dB 4:14 02-Come As You Are (Kurt Cobain)
DR9 -0.59 dB -12.66 dB 4:37 03-Jesus Doesn't Want Me For A Sunbeam (Eugene Kelly, Francis McKee)
DR8 -0.65 dB -10.82 dB 4:21 04-The Man Who Sold The World (David Bowie)
DR8 -0.60 dB -12.63 dB 3:40 05-Pennyroyal Tea (Kurt Cobain)
DR8 -0.62 dB -10.85 dB 2:53 06-Dumb (Kurt Cobain)
DR9 -0.63 dB -12.06 dB 3:16 07-Polly (Kurt Cobain)
DR9 -0.33 dB -11.45 dB 3:45 08-On A Plain (Kurt Cobain)
DR10 -0.83 dB -15.02 dB 4:02 09-Something In The Way (Kurt Cobain)
DR11 -1.47 dB -14.75 dB 3:38 10-Plateau (Curt Kirkwood)
DR9 -0.84 dB -12.75 dB 3:26 11-Oh Me (Curt Kirkwood)
DR10 -0.53 dB -12.77 dB 2:56 12-Lake Of Fire (Curt Kirkwood)
DR9 -0.37 dB -12.60 dB 4:23 13-All Apologies (Kurt Cobain)
DR8 -0.58 dB -12.50 dB 5:08 14-Where Did You Sleep Last Night (Huddie Ledbetter)

Number of tracks: 14
Official DR value: DR9

Samplerate: 44100 Hz
Channels: 2
Bits per sample: 16
Bitrate: 841 kbps
Codec: FLAC

[CUETools log; Date: 13.09.2012 19:03:06; Version: 2.1.4]
Pregap length 00:00:37.
[CTDB TOCID: hIdGXI97rhO6..uJrapywrfGt5w-] disk not present in database.
[AccurateRip ID: 001bafa3-01255977-b10ca60e] found.
Track [ CRC | V2 ] Status
01 [d95580af|5595e44c] (8+0/8) Accurately ripped
02 [36b4c281|274a0083] (8+0/8) Accurately ripped
03 [211ad4c3|ddc03abc] (8+0/8) Accurately ripped
04 [1a0e13b7|0592a8aa] (8+0/8) Accurately ripped
05 [4de53de0|b236682b] (8+0/8) Accurately ripped
06 [c148ea00|fc60fad6] (8+0/8) Accurately ripped
07 [f856aae1|e64b9d05] (8+0/8) Accurately ripped
08 [6cb8660f|d919f622] (8+0/8) Accurately ripped
09 [36280b89|a15abfbc] (8+0/8) Accurately ripped
10 [6aa4aa02|bb07e6ed] (8+0/8) Accurately ripped
11 [5c150973|bce78b66] (8+0/8) Accurately ripped
12 [ee3e30bc|b52f6d1c] (8+0/8) Accurately ripped
13 [4d83e9e8|c60ae241] (8+0/8) Accurately ripped
14 [65b7dc60|76068493] (8+0/8) Accurately ripped

Track Peak [ CRC32 ] [W/O NULL] [ LOG ]
-- 96,2 [11C98897] [2E967101] CRC32
01 89,1 [E566CEC5] [5DC4D681]
02 92,5 [20ABFC3F] [681649A8]
03 93,4 [38A2CA5B] [468195A3]
04 92,8 [53DFACF7] [5D9B626A]
05 93,3 [2480753A] [CBE4A493]
06 93,1 [000FD2CB] [F2FAF51E]
07 93,0 [4FFBB312] [3EAD7170]
08 96,2 [800ED12B] [278A07F5]
09 90,9 [80B37AE4] [218B1B1A]
10 84,4 [67515D74] [FDB0AAD1]
11 90,7 [A894A43A] [7D6C84D4]
12 94,0 5806725 [5167885C]
13 95,8 [E98A0F95] [02C274AF]
14 93,5 [60CFE821] [9FC629A4]

* * * * * *

http://i71.fastpic.ru/big/2015/0830/a3/9a6571a808d74cf118ccc247368be9a3.jpg

CD06: Nirvana - From The Muddy Banks Of The Wishkah (1996)
EAC | Flac(Image) + Cue + Log & MP3 CBR 320Kbps
MCA Victor, MVCG-212 | ~ 396 or 127 Mb | Scans(png) -> 230 Mb
Alternative Rock / Grunge

"From the Muddy Banks of the Wishkah is the second posthumous Nirvana record, an attempt to capture Nirvana at the peak of its powers on stage. That doesn't necessarily mean all the band's best-known songs are here -- "Come as You Are," "All Apologies," and "About a Girl" are all absent -- but it does mean that this is the closest representation to what Nirvana sounded like on-stage. It may not be perfect and it's a little scattershot due to its varied source material (the tapes were recorded anywhere between 1989 and 1994), but it's still a terrific record, thanks to a sharp selection of performances and a set list that relies on B-sides, album tracks, and album favorites, highlighting the group at its best. It's not necessary, but it still finds a great band in top form.


by Stephen Thomas Erlewine, AMG
"


Tracklist:

01. Intro (0:53)
02. School (Kurt Cobain. Amsterdam, Holland, Paradiso, November 25, 1991. Recorded by VPRO-TV) (2:40)
03. Drain You (Kurt Cobain. Del Mar Fairgrounds, CA, December 28, 1991. Recorded by Westwood One. Mixed by Andy Wallace) (3:35)
04. Aneurysm (Kurt Cobain, Nirvana. Del Mar Fairgrounds, CA, December 28, 1991. Recorded by Westwood One. Mixed by Andy Wallace) (4:32)
05. Smells Like Teen Spirit (Kurt Cobain, Nirvana. Del Mar Fairgrounds, CA, December 28, 1991. Recorded by Westwood One. Mixed by Andy Wallace) (4:47)
06. Been A Son (Kurt Cobain. Amsterdam, Holland, Paradiso, November 25, 1991. Recorded by VPRO-TV) (2:07)
07. Lithium (Kurt Cobain. Amsterdam, Holland, Paradiso, November 25, 1991. Recorded by VPRO-TV) (4:10)
08. Sliver (Kurt Cobain. Civic Center, Springfield, MA, November 10, 1993. Recorded by Craig Overbay) (1:56)
09. Spank Thru (Kurt Cobain. Il Castello Vi De porta, Castello 41 Rome, November 19, 1991. Recorded by Stereoral) (3:10)
10. Scentless Apprentice (Kurt Cobain, Nirvana. Pier 48, Seattle, WA, December 13, 1993. Recorded by Scott Litt. Mixed by Andy Wallace) (3:31)
11. Heart-Shaped Box (Kurt Cobain. Great Western Forum, LA, CA, December 30, 1993. Recorded by Craig Overbay) (4:42)
12. Milk It (Kurt Cobain. Seattle Center Arena, January 5, 1994. Recorded by Craig Overbay. Mixed by Andy Wallace) (3:46)
13. Negative Creep (Kurt Cobain. Paramount Theatre, Seattle, WA, October 31, 1991. Recorded and mixed by Andy Wallace) (2:44)
14. Polly (Kurt Cobain. Astoria Theatre, London, December 5, 1989. Recorded by Craig Montgomery) (2:30)
15. Breed (Kurt Cobain. Astoria Theatre, London, December 5, 1989. Recorded by Craig Montgomery) (3:28)
16. tourette's (Kurt Cobain. The Reading Festival, England, August 30, 1992. Recorded by Fujisankei Communications Int. Inc.) (1:55)
17. Blew (Kurt Cobain. Amsterdam, Holland, Paradiso, November 25, 1991. Recorded by VPRO-TV) (3:37)

Exact Audio Copy V1.0 beta 3 from 29. August 2011

EAC extraction logfile from 6. September 2012, 18:11

Nirvana / From The Muddy Banks Of The Wishkah (MVCG-212)

Used drive : HL-DT-STDVD+-RW GT60N Adapter: 0 ID: 1

Read mode : Secure
Utilize accurate stream : Yes
Defeat audio cache : Yes
Make use of C2 pointers : No

Read offset correction

: 103
Overread into Lead-In and Lead-Out : No
Fill up missing offset samples with silence : Yes
Delete leading and trailing silent blocks : No
Null samples used in CRC calculations : Yes
Used interface
: Native Win32 interface for Win NT & 2000

Used output format : User Defined Encoder
Selected bitrate : 128 kBit/s
Quality : High
Add ID3 tag : No
Command line compressor : C:\Program Files (x86)\Exact Audio Copy\Flac\flac.exe
Additional command line options : -V -8 -T "Genre=%genre%" -T "Artist=%artist%" -T "Title=%title%" -T "Album=%albumtitle%" -T "Date=%year%" -T "Tracknumber=%tracknr%" -T "Comment=%comment%" %source%

TOC of the extracted CD Track | Start | Length | Start sector | End sector
--1 | 0:00.37 | 0:52.73 | 37 | 4009 2 | 0:53.35 | 2:40.17 | 4010 | 16026 3 | 3:33.52 | 3:34.68 | 16027 | 32144 4 | 7:08.45 | 4:31.47 | 32145 | 52516 5 | 11:40.17 | 4:47.05 | 52517 | 74046 6 | 16:27.22 | 2:07.23 | 74047 | 83594 7 | 18:34.45 | 4:10.07 | 83595 | 102351 8 | 22:44.52 | 1:55.73 | 102352 | 111049 9 | 24:40.50 | 3:10.35 | 111050 | 125334
10 | 27:51.10 | 3:31.07 | 125335 | 141166
11 | 31:22.17 | 4:41.48 | 141167 | 162289
12 | 36:03.65 | 3:45.47 | 162290 | 179211
13 | 39:49.37 | 2:43.48 | 179212 | 191484
14 | 42:33.10 | 2:30.05 | 191485 | 202739
15 | 45:03.15 | 3:28.20 | 202740 | 218359
16 | 48:31.35 | 1:55.27 | 218360 | 227011
17 | 50:26.62 | 3:36.55 | 227012 | 243266

Range status and errors

Selected range Filename C:\Nirvana - From The Muddy Banks Of The Wishkah (MVCG-212).wav Peak level 100.0 %
Extraction speed 4.8 X
Range quality 100.0 %
Test CRC B166153E
Copy CRC B166153E
Copy OK

No errors occurred


AccurateRip summary

Track 1 accurately ripped (confidence 6) [D2F442AA] (AR v1)
Track 2 accurately ripped (confidence 6) [D214600A] (AR v1)
Track 3 accurately ripped (confidence 6) [6BA23F8F] (AR v1)
Track 4 accurately ripped (confidence 6) [9B2D7BF1] (AR v1)
Track 5 accurately ripped (confidence 6) [3C2BF0AA] (AR v1)
Track 6 accurately ripped (confidence 6) [0F54A47C] (AR v1)
Track 7 accurately ripped (confidence 6) [3037C124] (AR v1)
Track 8 accurately ripped (confidence 6) [7D4361AA] (AR v1)
Track 9 accurately ripped (confidence 6) 3217E45 (AR v1)
Track 10 accurately ripped (confidence 6) [0B804E62] (AR v1)
Track 11 accurately ripped (confidence 6) [D70BC687] (AR v1)
Track 12 accurately ripped (confidence 6) 97991AC (AR v1)
Track 13 accurately ripped (confidence 6) [F67C4376] (AR v1)
Track 14 accurately ripped (confidence 6) [97030842] (AR v1)
Track 15 accurately ripped (confidence 6) [D31A0269] (AR v1)
Track 16 accurately ripped (confidence 6) [DEFCC6AD] (AR v1)
Track 17 accurately ripped (confidence 6) [2D373B84] (AR v1)

All tracks accurately ripped

End of status report

==== Log checksum 5236138BD0B61EA75CE1F53AB16167D6B8902712EFDF9D29271D7D4142047CD5 ====

foobar2000 1.1.13 / Dynamic Range Meter 1.1.0
log date: 2012-09-24 18:54:53

Analyzed: Nirvana / From The Muddy Banks Of The Wishkah (MVCG-212)

DR Peak RMS Duration Track

DR5 -0.18 dB -8.50 dB 0:53 01-Intro
DR7 -0.19 dB -8.38 dB 2:40 02-School (Kurt Cobain. Amsterdam, Holland, Paradiso, November 25, 1991. Recorded by VPRO-TV)
DR7 -0.19 dB -8.16 dB 3:35 03-Drain You (Kurt Cobain. Del Mar Fairgrounds, CA, December 28, 1991. Recorded by Westwood One. Mixed by Andy Wallace)
DR6 -0.19 dB -7.39 dB 4:32 04-Aneurysm (Kurt Cobain, Nirvana. Del Mar Fairgrounds, CA, December 28, 1991. Recorded by Westwood One. Mixed by Andy Wallace)
DR7 -0.19 dB -9.07 dB 4:47 05-Smells Like Teen Spirit (Kurt Cobain, Nirvana. Del Mar Fairgrounds, CA, December 28, 1991. Recorded by Westwood One. Mixed by Andy Wallace)
DR6 -0.10 dB -6.79 dB 2:07 06-Been A Son (Kurt Cobain. Amsterdam, Holland, Paradiso, November 25, 1991. Recorded by VPRO-TV)
DR7

Nirvana - Discography (1989-1996) [Japanese Original Pressing] Fast Download


Ad2

 
 
 
Dear visitor, you went to the site as an unregistered user. We encourage you to register or enter the site under your name.
 
   
 
 (Votes #: 0)