2013Zone For Latest Downloads

 
     
 
Legal Downloads » Music » Soft Machine - BBC Radio 1971-1974 (2003)
Menu
Home Applications
Games Movies
Music TV Shows
Torrents Graphics

Sitemap

RSS
 
Advanced Search
Last News
Site Info
Top Contributors:
  1    supper88 32766
  2    admin 32693
  3    Whisky 10080
  4    Shark_ 8911
  5    creativelivenew 8706
  6    whathesupa 2799
  7    candymypost 840
  8    hvnteam 629
  9    vuong87 3


Articles:
  This Hour: 0
  Today: 0
  This Month: 10
  All Time: 515561


Torrents:
  Today: 0
  Yesterday: 0
  All Time: 156684


Membership:
  Registered Today :0
  This Hour:0
  This Month:0
  Total:14
  Banned:1

{online}
{inform_torrent}
Friend:
We Recomend
Trend
Trend
Ad1

Search In Site

Music : Soft Machine - BBC Radio 1971-1974 (2003)
 
http://i68.fastpic.ru/big/2015/0830/e5/7420a6d53410ca60710a3f426cad40e5.jpg

Soft Machine - BBC Radio 1971-1974 (2003)
EAC Rip | WavPack (image+.cue+log) - 530 MB | MP3 CBR 320 kbps (LAME 3.93) - 188 MB | Covers - 176 MB
Genre: Progressive/Jazz Rock | RAR 3% Rec. | Label: Hux Records (HUX 047)

"This album features rare live in studio recordings for the BBC being aired on the famous ''John Peel Show". They cover Soft Machine career from their album "Fifth" to "Bundles" through "Six" and "Seven", meaning a lot of personel changes and numerous musical direction shifts in between. This album gives us the opportunity to check some live performances from short lived Soft line-ups and discover some well known tracks in a different version."

Line-up:

Mike Ratledge - keyboards
Hugh Hopper - bass (tracks 1-4, CD1)
Elton Dean - saxophone (tracks 1-3, CD 1)
Karl Jenkins - oboe, saxophone, recorder, keyboards (tracks 4-6, CD1; all tracks CD 2)
John Marshall - drums (tracks 4-6, CD1; all tracks CD 2)
Roy Babbington - bass (tracks 5-6, CD1; all tracks CD 2)
Allan Holdsworth - guitars (tracks 3-5, CD 2)
Phil Howard - drums (tracks 1-3, CD 1)

CD 1 Tracklist:
01. As If
02. Drop
03. Welcome To Frillsville
04. Fanfare / All White / MC / Drop
05. Stanley Stamp's Gibbon Album
06. Hazard Profile, Part 1

Total time: 44:58

CD 2 Tracklist:
01. Sinepost
02. Down The Road
03. North Point
04. The Man Who Waved At Trains
05. Hazard Profile Parts 1-4

Total time: 34:59

Exact Audio Copy V1.0 beta 3 from 29. August 2011

EAC extraction logfile from 13. December 2012, 20:52

Soft Machine / BBC Radio 1971-1974

Used drive : HL-DT-STBDDVDRW GBC-H20N Adapter: 1 ID: 0

Read mode : Secure
Utilize accurate stream : Yes
Defeat audio cache : Yes
Make use of C2 pointers : No

Read offset correction

: 667
Overread into Lead-In and Lead-Out : No
Fill up missing offset samples with silence : Yes
Delete leading and trailing silent blocks : No
Null samples used in CRC calculations : Yes
Used interface
: Native Win32 interface for Win NT & 2000

Used output format : User Defined Encoder
Selected bitrate : 1024 kBit/s
Quality : High
Add ID3 tag : No
Command line compressor : C:\Program Files\Exact Audio Copy\wavpack.exe
Additional command line options : -hm %source% %dest%

TOC of the extracted CD Track | Start | Length | Start sector | End sector
--1 | 0:00.00 | 7:45.05 | 0 | 34879 2 | 7:45.05 | 6:55.66 | 34880 | 66070 3 | 14:40.71 | 10:33.07 | 66071 | 113552 4 | 25:14.03 | 11:12.70 | 113553 | 164022 5 | 36:26.73 | 3:35.13 | 164023 | 180160 6 | 40:02.11 | 4:55.53 | 180161 | 202338

Range status and errors

Selected range Filename I:\Music\Canterbury scene\Soft Machine\Soft.Machine-Discography.1968-2010.FLAC.CUE.Lossless\2 - Live\16 - BBC Radio 1971-1974\CD One\Soft Machine - BBC Radio 1971-1974.wav Peak level 84.5 %
Extraction speed 5.7 X
Range quality 99.9 %
Test CRC 43C59EB0
Copy CRC 43C59EB0
Copy OK

No errors occurred


AccurateRip summary

Track 1 cannot be verified as accurate (confidence 4) [8614AF4C], AccurateRip returned [7BFD3632] (AR v2)
Track 2 cannot be verified as accurate (confidence 4) [4FF9500C], AccurateRip returned [739DF824] (AR v2)
Track 3 cannot be verified as accurate (confidence 4) [0FCED65B], AccurateRip returned [123CD1E7] (AR v2)
Track 4 cannot be verified as accurate (confidence 4) [3A5641A2], AccurateRip returned [770047E3] (AR v2)
Track 5 cannot be verified as accurate (confidence 4) [28339AE3], AccurateRip returned [92B66F57] (AR v2)
Track 6 cannot be verified as accurate (confidence 4) [EC3E29D7], AccurateRip returned [533D76AA] (AR v2)

No tracks could be verified as accurate
You may have a different pressing from the one(s) in the database

End of status report

- CUETools DB Plugin V2.1.3

[CTDB TOCID: PJTDd8rR5j2AWFjOgQt4W3cnEjo-] found, Submit result: PJTDd8rR5j2AWFjOgQt4W3cnEjo- has been confirmed
[f36e2116] (7/7) Accurately ripped

==== Log checksum 343D28D9015FFB856524EFA639E48505784C7DA15E3D3D852A295DA4E61E82B1 ====

[CUETools log; Date: 28.08.2015 12:40:03; Version: 2.1.4]
[CTDB TOCID: PJTDd8rR5j2AWFjOgQt4W3cnEjo-] found.
Track | CTDB Status
1 | (10/10) Accurately ripped
2 | (10/10) Accurately ripped
3 | (10/10) Accurately ripped
4 | (10/10) Accurately ripped
5 | ( 9/10) Accurately ripped
6 | ( 9/10) Accurately ripped
[AccurateRip ID: 000b9cc3-003da3d8-4f0a8906] found.
Track [ CRC | V2 ] Status
01 [ed7e27a0|8614af4c] (00+00/11) No match
02 [06ad1ff3|4ff9500c] (00+00/11) No match
03 [84326822|0fced65b] (00+00/11) No match
04 6543ff8|3a5641a2 (00+00/11) No match
05 [837ce540|28339ae3] (00+00/11) No match
06 [9aae756a|ec3e29d7] (00+00/10) No match
Offsetted by 682:
01 [7bfd3632] (04/11) Accurately ripped
02 [739df824] (04/11) Accurately ripped
03 [123cd1e7] (04/11) Accurately ripped
04 [770047e3] (04/11) Accurately ripped
05 [92b66f57] (04/11) Accurately ripped
06 [533d76aa] (04/10) Accurately ripped

Track Peak [ CRC32 ] [W/O NULL] [ LOG ]
-- 84,5 [43C59EB0] [C68D0BFC] CRC32
01 81,1 [107A34F3] [04E0D43A]
02 84,5 [576CB604] [63782C7F]
03 74,0 EDE6B81 [524205CF]
04 74,3 [064B4310] [360142A4]
05 74,2 [3758B4E0] [1A4F0C69]
06 74,3 [5FB49B6A] [74A24AA1]


Exact Audio Copy V1.0 beta 3 from 29. August 2011

EAC extraction logfile from 13. December 2012, 22:00

Soft Machine / BBC Radio 1971-1974

Used drive : HL-DT-STBDDVDRW GBC-H20N Adapter: 1 ID: 0

Read mode : Secure
Utilize accurate stream : Yes
Defeat audio cache : Yes
Make use of C2 pointers : No

Read offset correction

: 667
Overread into Lead-In and Lead-Out : No
Fill up missing offset samples with silence : Yes
Delete leading and trailing silent blocks : No
Null samples used in CRC calculations : Yes
Used interface
: Native Win32 interface for Win NT & 2000

Used output format : User Defined Encoder
Selected bitrate : 1024 kBit/s
Quality : High
Add ID3 tag : No
Command line compressor : C:\Program Files\Exact Audio Copy\wavpack.exe
Additional command line options : -hm %source% %dest%

TOC of the extracted CD Track | Start | Length | Start sector | End sector
--1 | 0:00.00 | 1:46.68 | 0 | 8017 2 | 1:46.68 | 7:33.55 | 8018 | 42047 3 | 9:20.48 | 2:59.72 | 42048 | 55544 4 | 12:20.45 | 5:40.66 | 55545 | 81110 5 | 18:01.36 | 16:57.04 | 81111 | 157389

Range status and errors

Selected range Filename I:\Music\Canterbury scene\Soft Machine\Soft.Machine-Discography.1968-2010.FLAC.CUE.Lossless\2 - Live\16 - BBC Radio 1971-1974\CD Two\Soft Machine - BBC Radio 1971-1974.wav Peak level 79.2 %
Extraction speed 5.5 X
Range quality 100.0 %
Test CRC CDE21F53
Copy CRC CDE21F53
Copy OK

No errors occurred


AccurateRip summary

Track 1 cannot be verified as accurate (confidence 4) [8DA4672D], AccurateRip returned [0ED239B5] (AR v2)
Track 2 cannot be verified as accurate (confidence 4) [E20269D8], AccurateRip returned [7E5C500C] (AR v2)
Track 3 cannot be verified as accurate (confidence 4) [F5A50523], AccurateRip returned [C6171124] (AR v2)
Track 4 cannot be verified as accurate (confidence 4) [694639AC], AccurateRip returned 338EB3D (AR v2)
Track 5 cannot be verified as accurate (confidence 4) [C90F1172], AccurateRip returned [683B2E72] (AR v2)

No tracks could be verified as accurate
You may have a different pressing from the one(s) in the database

End of status report

- CUETools DB Plugin V2.1.3

[CTDB TOCID: JD3rjcXsgflD0QzAL4poamP200Q-] found, Submit result: JD3rjcXsgflD0QzAL4poamP200Q- has been confirmed
[8ab77ab7] (7/7) Accurately ripped

==== Log checksum 99F938717454E96EB8A9E80AE01C357E9EDAD3799635AE9A06287751B4BEF8A3 ====

[CUETools log; Date: 28.08.2015 12:41:00; Version: 2.1.4]
[CTDB TOCID: JD3rjcXsgflD0QzAL4poamP200Q-] found.
Track | CTDB Status
1 | (10/10) Accurately ripped
2 | (10/10) Accurately ripped
3 | (10/10) Accurately ripped
4 | (10/10) Accurately ripped
5 | (10/10) Accurately ripped
[AccurateRip ID: 00054030-001a2850-31083205] found.
Track [ CRC | V2 ] Status
01 [67dfffe2|8da4672d] (00+00/12) No match
02 [0d6434f1|e20269d8] (00+00/12) No match
03 [d0f8ea35|f5a50523] (00+00/12) No match
04 [e0e279de|694639ac] (00+00/12) No match
05 [459c264c|c90f1172] (00+00/12) No match
Offsetted by 682:
01 [0ed239b5] (04/12) Accurately ripped
02 [7e5c500c] (04/12) Accurately ripped
03 [c6171124] (04/12) Accurately ripped
04 338eb3d (04/12) Accurately ripped
05 [683b2e72] (04/12) Accurately ripped

Track Peak [ CRC32 ] [W/O NULL] [ LOG ]
-- 79,2 [CDE21F53] [927FED1E] CRC32
01 66,1 [DEB4BA83] [0316B9AA]
02 76,5 [1AFA031F] [CBE978C8]
03 79,2 [00EE591D] [99AD7E72]
04 76,5 [DE3D64A9] [65F67590]
05 79,2 [817214C2] [ED0AE682]

Thanks to arizonadream

See also (Soft Machine, Soft Machine Legacy, Soft Heap, Soft Works):
DOWNLOAD LINKS:
Buy Premium To Support Me & Get Resumable Support & Max Speed


Links are Interchangeable - No Password - Single Extraction

Soft Machine - BBC Radio 1971-1974 (2003) Fast Download


Ad2

 
 
 
Dear visitor, you went to the site as an unregistered user. We encourage you to register or enter the site under your name.
 
   
 
 (Votes #: 0)