2013Zone For Latest Downloads

 
     
 
Legal Downloads » Music » Tom Petty And The Heartbreakers - Mojo (2010) [2012 Limited Tour Edition]
Menu
Home Applications
Games Movies
Music TV Shows
Torrents Graphics

Sitemap

RSS
 
Advanced Search
Last News
Site Info
Top Contributors:
  1    supper88 32766
  2    admin 32693
  3    Whisky 10080
  4    Shark_ 8911
  5    creativelivenew 8706
  6    whathesupa 2799
  7    candymypost 840
  8    hvnteam 629
  9    vuong87 3


Articles:
  This Hour: 0
  Today: 0
  This Month: 10
  All Time: 515561


Torrents:
  Today: 0
  Yesterday: 0
  All Time: 156684


Membership:
  Registered Today :0
  This Hour:0
  This Month:0
  Total:14
  Banned:1

{online}
{inform_torrent}
Friend:
We Recomend
Trend
Trend
Ad1

Search In Site

Music : Tom Petty And The Heartbreakers - Mojo (2010) [2012 Limited Tour Edition]
 
http://i65.fastpic.ru/big/2015/0830/a5/67dceba8f99aa3006914b24141155da5.jpg

Tom Petty And The Heartbreakers - Mojo (2010) [2012 Limited Tour Edition]
EAC Secure Rip | FLAC (Image + Cue + Log) - 870 MB | Complete Scans (Jpeg 600 dpi) - 214 MB | MP3 (CBR320 Kbps) - 311 MB
Rock | WEA International Inc. | 9362494953 | 124:28 minutes | Hosted on: NitroFlare

Mojo is the 12th studio album by American rock band Tom Petty and the Heartbreakers. It is Petty's first album with the Heartbreakers in eight years. This Limited Tour Edition contains a second disc with various live tracks from the Mojo Tour.
Exact Audio Copy V1.0 beta 2 from 29. April 2011

EAC extraction logfile from 29. October 2014, 23:59

Tom Petty And The Heartbreakers / Mojo [2012 Limited Tour Edition]

Used drive : HL-DT-STDVDRAM GH60N Adapter: 0 ID: 1

Read mode : Secure
Utilize accurate stream : Yes
Defeat audio cache : Yes
Make use of C2 pointers : No

Read offset correction

: 667
Overread into Lead-In and Lead-Out : No
Fill up missing offset samples with silence : Yes
Delete leading and trailing silent blocks : No
Null samples used in CRC calculations : Yes
Used interface
: Native Win32 interface for Win NT & 2000

Used output format : User Defined Encoder
Selected bitrate : 1024 kBit/s
Quality : High
Add ID3 tag : No
Command line compressor : C:\Program Files (x86)\Exact Audio Copy\Flac\flac.exe
Additional command line options : -V -5 -T "artist=%albumartist%" -T "title=%title%" -T "album=%albumtitle%" -T "date=%year%" -T "genre=%genre%" -T "tracknumber=%tracknr%" %source%

TOC of the extracted CD Track | Start | Length | Start sector | End sector
--1 | 0:00.00 | 3:23.36 | 0 | 15260 2 | 3:23.36 | 6:52.52 | 15261 | 46212 3 | 10:16.13 | 6:01.24 | 46213 | 73311 4 | 16:17.37 | 4:59.10 | 73312 | 95746 5 | 21:16.47 | 4:11.15 | 95747 | 114586 6 | 25:27.62 | 3:04.16 | 114587 | 128402 7 | 28:32.03 | 3:35.46 | 128403 | 144573 8 | 32:07.49 | 3:00.19 | 144574 | 158092 9 | 35:07.68 | 4:21.28 | 158093 | 177695
10 | 39:29.21 | 3:22.46 | 177696 | 192891
11 | 42:51.67 | 4:04.31 | 192892 | 211222
12 | 46:56.23 | 4:23.21 | 211223 | 230968
13 | 51:19.44 | 3:35.46 | 230969 | 247139
14 | 54:55.15 | 4:10.39 | 247140 | 265928
15 | 59:05.54 | 5:50.55 | 265929 | 292233

Range status and errors

Selected range Filename C:\EAC\Tom Petty And The Heartbreakers - (2010) Mojo [2012 Limited Tour Edition]\Tom Petty And The Heartbreakers - Mojo [2012 Limited Tour Edition].wav Peak level 100.0 %
Extraction speed 2.0 X
Range quality 100.0 %
Test CRC CB13D088
Copy CRC CB13D088
Copy OK

No errors occurred


AccurateRip summary

Track 1 accurately ripped (confidence 21) [3C03B747] (AR v2)
Track 2 accurately ripped (confidence 21) [146705E7] (AR v2)
Track 3 accurately ripped (confidence 21) [42F6B2B6] (AR v2)
Track 4 accurately ripped (confidence 21) [1D4CD52E] (AR v2)
Track 5 accurately ripped (confidence 21) [1EB49714] (AR v2)
Track 6 accurately ripped (confidence 21) [43BE9EE8] (AR v2)
Track 7 accurately ripped (confidence 21) [2244AE93] (AR v2)
Track 8 accurately ripped (confidence 21) [924B36D6] (AR v2)
Track 9 accurately ripped (confidence 21) [8BD9BE22] (AR v2)
Track 10 accurately ripped (confidence 21) [99351443] (AR v2)
Track 11 accurately ripped (confidence 21) [392F60AC] (AR v2)
Track 12 accurately ripped (confidence 20) [FB68DA12] (AR v2)
Track 13 accurately ripped (confidence 19) [EB1A6B45] (AR v2)
Track 14 accurately ripped (confidence 20) [F081A8D8] (AR v2)
Track 15 accurately ripped (confidence 18) [E1F339E5] (AR v2)

All tracks accurately ripped

End of status report

==== Log checksum 9807AD01AD756E2F7A7DCD7EFA565FE06AA71F2AE07F973E5DC16DFA0D00C8EC ====

_______________________________________________________________________________________________________________
>>>>> DISC TWO
_______________________________________________________________________________________________________________

Exact Audio Copy V1.0 beta 2 from 29. April 2011

EAC extraction logfile from 30. October 2014, 14:35

Tom Petty And The Heartbreakers / Mojo [2012 Limited Tour Edition] (2)

Used drive : HL-DT-STDVDRAM GH60N Adapter: 0 ID: 1

Read mode : Secure
Utilize accurate stream : Yes
Defeat audio cache : Yes
Make use of C2 pointers : No

Read offset correction

: 667
Overread into Lead-In and Lead-Out : No
Fill up missing offset samples with silence : Yes
Delete leading and trailing silent blocks : No
Null samples used in CRC calculations : Yes
Used interface
: Native Win32 interface for Win NT & 2000

Used output format : User Defined Encoder
Selected bitrate : 1024 kBit/s
Quality : High
Add ID3 tag : No
Command line compressor : C:\Program Files (x86)\Exact Audio Copy\Flac\flac.exe
Additional command line options : -V -5 -T "artist=%albumartist%" -T "title=%title%" -T "album=%albumtitle%" -T "date=%year%" -T "genre=%genre%" -T "tracknumber=%tracknr%" %source%

TOC of the extracted CD Track | Start | Length | Start sector | End sector
--1 | 0:00.00 | 3:35.74 | 0 | 16198 2 | 3:35.74 | 6:26.41 | 16199 | 45189 3 | 10:02.40 | 3:08.30 | 45190 | 59319 4 | 13:10.70 | 4:28.11 | 59320 | 79430 5 | 17:39.06 | 4:13.04 | 79431 | 98409 6 | 21:52.10 | 5:15.73 | 98410 | 122107 7 | 27:08.08 | 3:34.64 | 122108 | 138221 8 | 30:42.72 | 6:25.44 | 138222 | 167140 9 | 37:08.41 | 6:10.62 | 167141 | 194952
10 | 43:19.28 | 5:56.27 | 194953 | 221679
11 | 49:15.55 | 4:48.13 | 221680 | 243292
12 | 54:03.68 | 5:26.24 | 243293 | 267766

Range status and errors

Selected range Filename C:\EAC\Tom Petty And The Heartbreakers - (2010) Mojo [2012 Limited Tour Edition]\Tom Petty And The Heartbreakers - Mojo [2012 Limited Tour Edition] (2).wav Peak level 100.0 %
Extraction speed 2.1 X
Range quality 100.0 %
Test CRC F971F0A9
Copy CRC F971F0A9
Copy OK

No errors occurred


AccurateRip summary

Track 1 accurately ripped (confidence 25) [73589E5A] (AR v2)
Track 2 accurately ripped (confidence 25) [19EE6A71] (AR v2)
Track 3 accurately ripped (confidence 25) [AA750498] (AR v2)
Track 4 accurately ripped (confidence 25) DCCF173 (AR v2)
Track 5 accurately ripped (confidence 24) [44677B97] (AR v2)
Track 6 accurately ripped (confidence 25) [17BD414B] (AR v2)
Track 7 accurately ripped (confidence 25) [A51E40B4] (AR v2)
Track 8 accurately ripped (confidence 25) [1745BE04] (AR v2)
Track 9 accurately ripped (confidence 25) [94F0C1B3] (AR v2)
Track 10 accurately ripped (confidence 23) [657F784F] (AR v2)
Track 11 accurately ripped (confidence 25) [1F91901B] (AR v2)
Track 12 accurately ripped (confidence 24) [6805EF23] (AR v2)

All tracks accurately ripped

End of status report

==== Log checksum A7E51A4847F1F202F5C42BE9360B13438330E6F06E0E7B0F34D79CE4648414D4 ====

Track Listing:

01. Jefferson Jericho Blues
02. First Flash Of Freedom
03. Running Man's Bible
04. The Trip To Pirate's Cove
05. Candy
06. No Reason To Cry
07. I Should Have Known It
08. U.S. 41
09. Takin' My Time
10. Let Yourself Go
11. Don't Pull Me Over
12. Lover's Touch
13. High In The Morning
14. Something Good Coming
15. Good Enough

Limited Tour Edition Live Disc:

01. Listen To Her Heart (Live)
02. You Don't Know How It Feels (Live)
03. I Won't Back Down (Live)
04. Takin' My Time (Live)
05. I Should Have Known It (Live)
06. Sweet William (Live)
07. Jefferson Jericho Blues (Live)
08. First Flash Of Freedom (Live)
09. Running Man's Bible (Live)
10. Good Enough (Live)
11. Refugee (Live)
12. American Girl (Live)

Album Released: June 15, 2010
Limited Tour Edition Released: June 8, 2012

foobar2000 1.3.2 / Dynamic Range Meter 1.1.0
log date: 2015-08-26 22:29:12

Analyzed: Tom Petty And The Heartbreakers / Mojo [2012 Limited Tour Edition]

DR Peak RMS Duration Track

DR8 0.00 dB -8.49 dB 3:23 01-Jefferson Jericho Blues
DR8 0.00 dB -9.93 dB 6:53 02-First Flash Of Freedom
DR7 0.00 dB -9.26 dB 6:01 03-Running Man's Bible
DR9 0.00 dB -11.29 dB 4:59 04-The Trip To Pirate's Cove
DR9 0.00 dB -10.27 dB 4:11 05-Candy
DR10 -0.18 dB -12.61 dB 3:04 06-No Reason To Cry
DR7 0.00 dB -8.02 dB 3:36 07-I Should Have Known It
DR8 -0.07 dB -10.17 dB 3:00 08-U.S. 41
DR6 0.00 dB -8.96 dB 4:21 09-Takin' My Time
DR8 0.00 dB -10.57 dB 3:23 10-Let Yourself Go
DR8 -0.03 dB -9.78 dB 4:04 11-Don't Pull Me Over
DR9 0.00 dB -10.52 dB 4:23 12-Lover's Touch
DR8 0.00 dB -9.90 dB 3:36 13-High In The Morning
DR10 -0.25 dB -12.96 dB 4:11 14-Something Good Coming
DR6 0.00 dB -8.24 dB 5:51 15-Good Enough

Number of tracks: 15
Official DR value: DR8

Samplerate: 44100 Hz
Channels: 2
Bits per sample: 16
Bitrate: 891 kbps
Codec: FLAC

_______________________________________________________________________________________________________________
>>>>> DISC TWO
_______________________________________________________________________________________________________________

foobar2000 1.3.2 / Dynamic Range Meter 1.1.0
log date: 2015-08-26 23:01:53

Analyzed: Tom Petty And The Heartbreakers / Mojo [2012 Limited Tour Edition] (2)

DR Peak RMS Duration Track

DR8 0.00 dB -9.15 dB 3:36 01-Listen To Her Heart (Live)
DR8 0.00 dB -10.03 dB 6:27 02-You Don't Know How It Feels (Live)
DR7 0.00 dB -8.87 dB 3:08 03-I Won't Back Down (Live)
DR7 0.00 dB -9.02 dB 4:28 04-Takin' My Time (Live)
DR6 0.00 dB -7.93 dB 4:13 05-I Should Have Known It (Live)
DR7 0.00 dB -9.23 dB 5:16 06-Sweet William (Live)
DR7 0.00 dB -8.31 dB 3:35 07-Jefferson Jericho Blues (Live)
DR7 0.00 dB -8.82 dB 6:26 08-First Flash Of Freedom (Live)
DR7 0.00 dB -9.00 dB 6:11 09-Running Man's Bible (Live)
DR6 0.00 dB -8.43 dB 5:56 10-Good Enough (Live)
DR6 0.00 dB -7.51 dB 4:48 11-Refugee (Live)
DR7 0.00 dB -8.47 dB 5:26 12-American Girl (Live)

Number of tracks: 12
Official DR value: DR7

Samplerate: 44100 Hz
Channels: 2
Bits per sample: 16
Bitrate: 975 kbps
Codec: FLAC

http://i70.fastpic.ru/big/2015/0830/e9/74ce327821c02388f11db7eed3420ce9.jpg


DOWNLOAD LINKS:
Buy Premium To Support Me & Get Resumable Support & Max Speed


Links are Interchangeable - No Password - Single Extraction

Tom Petty And The Heartbreakers - Mojo (2010) [2012 Limited Tour Edition] Fast Download


Ad2

 
 
 
Dear visitor, you went to the site as an unregistered user. We encourage you to register or enter the site under your name.
 
   
 
 (Votes #: 0)