2013Zone For Latest Downloads

 
     
 
Legal Downloads » Music » Dudamel, Simon Bolivar SO - Mahler: Symphony No 7 (2014)
Menu
Home Applications
Games Movies
Music TV Shows
Torrents Graphics

Sitemap

RSS
 
Advanced Search
Last News
Site Info
Top Contributors:
  1    supper88 32766
  2    admin 32693
  3    Whisky 10080
  4    Shark_ 8911
  5    creativelivenew 8706
  6    whathesupa 2799
  7    candymypost 840
  8    hvnteam 629
  9    vuong87 3


Articles:
  This Hour: 0
  Today: 0
  This Month: 0
  All Time: 515561


Torrents:
  Today: 0
  Yesterday: 0
  All Time: 156684


Membership:
  Registered Today :0
  This Hour:0
  This Month:0
  Total:14
  Banned:1

{online}
{inform_torrent}
Friend:
We Recomend
Trend
Trend
Ad1

Search In Site

Music : Dudamel, Simon Bolivar SO - Mahler: Symphony No 7 (2014)
 
http://i70.fastpic.ru/big/2015/0830/fd/6735545a1c18be6300b2643bc0f1a8fd.jpg

Dudamel, Simon Bolivar SO - Mahler: Symphony No 7 (2014)
EAC Rip | Flac (Tracks + cue + log) | 381 MB | MP3 320Kbps CBR | 205 MB | 1 CD | Full Scans
Genre: Classical | Label: Deutsche Grammophon | Catalog Number: 002155002

"Gustavo Dudamel resumes his survey of the Mahler symphonies with this recording of the rare, mysterious 7th Symphony. The 7th is a "symphony of everything", says Dudamel, "from chaos to glory, sarcasm to tenderness, from a funeral march to a seductive tango. It is a cosmic symphony of perfect construction and galactic emotional scope.""

"Reviews: Due to his charismatic personality and special rapport with orchestras, Gustavo Dudamel has become one of the leading conductors of his generation, and his dramatically physical performances of exciting repertoire have made him a celebrity. His acclaimed renditions of the symphonies of Gustav Mahler have won devoted fans, particularly since he conducted the entire cycle with the Los Angeles Symphony and the Simón Bolívar Symphony Orchestra of Venezuela in a series of historic concerts in 2012. Because of his success, he has been recording the symphonies on Deutsche Grammophon, giving his musicians the opportunity to become one of the best-known Mahler orchestras in the Americas. However, the Symphony No. 7 in E minor, "The Song of the Night," is not one of the most popular of Mahler's symphonies, and for many conductors, it is the most difficult to interpret. It is certainly the weirdest of the cycle, with four of its movements depicting scenes of nocturnal gloom, mystery, grotesquerie, and romance, only to be followed by a manic rondo-finale that bursts with daylight. The temptation to treat these movements as separate tone poems is strong, and many conductors have neglected the work's formal needs to emphasize its unofficial program. Dudamel succeeds in conveying the symphony's bizarre qualities, yet at the same time he maintains its propulsion and energy to hold the work together formally, and the Simón Bolívar Symphony Orchestra plays with so much vitality and color that interest nevers flags. This is certainly one of the most compelling Mahler recordings Dudamel has made, and it's inspiring to hear what he has achieved with the oddest of Mahler's symphonies. Highly recommended."


Tracklisting:

01. I. Langsam (Adagio) (22:11)
02. II. Nachtmusik (Allegro moderato) (16:14)
03. III. Scherzo (9:30)
04. IV. Nachtmusik (Andante amoroso) (12:59)
05. V. Rondo-Finale. Allegro ordinario (17:54)

Total length: 01:18:48
Recording: Caracas, Centro de Acción Social por la Música, Sala Simón Bolívar, 3/2012

Exact Audio Copy V1.0 beta 3 from 29. August 2011

EAC extraction logfile from 17. October 2014, 11:30

Simón Bolívar Youth Orchestra of Venezuela, Gustavo Dudamel / Symphony No.7

Used drive : HL-DT-STDVDRAM GE20NU10 Adapter: 4 ID: 0

Read mode : Secure
Utilize accurate stream : Yes
Defeat audio cache : Yes
Make use of C2 pointers : No

Read offset correction

: 667
Overread into Lead-In and Lead-Out : No
Fill up missing offset samples with silence : Yes
Delete leading and trailing silent blocks : No
Null samples used in CRC calculations : Yes
Used interface
: Native Win32 interface for Win NT & 2000
Gap handling
: Appended to previous track

Used output format : User Defined Encoder
Selected bitrate : 1024 kBit/s
Quality : High
Add ID3 tag : No
Command line compressor : C:\Program Files (x86)\Exact Audio Copy\Flac\flac.exe
Additional command line options : -8 -V -T "ARTIST=%artist%" -T "TITLE=%title%" -T "ALBUM=%albumtitle%" -T "DATE=%year%" -T "TRACKNUMBER=%tracknr%" -T "GENRE=%genre%" -T "PERFORMER=%albuminterpret%" -T "COMPOSER=%composer%" %haslyrics%--tag-from-file=LYRICS="%lyricsfile%"%haslyrics% -T "ALBUMARTIST=%albumartist%" -T "DISCNUMBER=%cdnumber%" -T "TOTALDISCS=%totalcds%" -T "TOTALTRACKS=%numtracks%" -T "COMMENT=%comment%" %source% -o %dest%

TOC of the extracted CD Track | Start | Length | Start sector | End sector
--1 | 0:00.00 | 22:11.54 | 0 | 99878 2 | 22:11.54 | 16:14.14 | 99879 | 172942 3 | 38:25.68 | 9:30.00 | 172943 | 215692 4 | 47:55.68 | 12:59.43 | 215693 | 274160 5 | 60:55.36 | 17:54.63 | 274161 | 354773

Track 1 Filename C:\New\01. Langsam-Allegro risoluto, ma non troppo.wav Pre-gap length 0:00:02.00 Peak level 100.0 %
Extraction speed 5.8 X
Track quality 100.0 %
Test CRC 20068195
Copy CRC 20068195
Track not present in AccurateRip database
Copy OK

Track 2 Filename C:\New\02. Nachtmusik. Allegro moderato.wav Peak level 88.8 %
Extraction speed 7.2 X
Track quality 100.0 %
Test CRC B33685D3
Copy CRC B33685D3
Track not present in AccurateRip database
Copy OK

Track 3 Filename C:\New\03. Scherzo. Schattenhaft.wav Peak level 66.7 %
Extraction speed 7.6 X
Track quality 100.0 %
Test CRC FEC02B0B
Copy CRC FEC02B0B
Track not present in AccurateRip database
Copy OK

Track 4 Filename C:\New\04. Nachtmusik. Andante amoroso.wav Peak level 42.7 %
Extraction speed 8.4 X
Track quality 100.0 %
Test CRC 8EAE5730
Copy CRC 8EAE5730
Track not present in AccurateRip database
Copy OK

Track 5 Filename C:\New\05. Rondo-Finale. Allegro ordinario.wav Peak level 100.0 %
Extraction speed 9.2 X
Track quality 100.0 %
Test CRC A874A020
Copy CRC A874A020
Track not present in AccurateRip database
Copy OK

None of the tracks are present in the AccurateRip database

No errors occurred

End of status report

- CUETools DB Plugin V2.1.3

[CTDB TOCID: Or8xDgrOU7tXiOEsIIgNqjHE2iQ-] found, Submit result: Or8xDgrOU7tXiOEsIIgNqjHE2iQ- has been confirmed
[69ca8198] (1/1) Accurately ripped

==== Log checksum 4993D98FC4E0E520E9CAA65D437DAF5B392768F71CAD13AC86FD55438C85339E ====
DOWNLOAD LINKS:
Buy Premium To Support Me & Get Resumable Support & Max Speed


Links are Interchangeable - No Password - Single Extraction

Dudamel, Simon Bolivar SO - Mahler: Symphony No 7 (2014) Fast Download


Ad2

 
 
 
Dear visitor, you went to the site as an unregistered user. We encourage you to register or enter the site under your name.
 
   
 
 (Votes #: 0)