2013Zone For Latest Downloads

 
     
 
Legal Downloads » Music » Boban & Marko Markovic Orchestra versus Fanfare Ciocarlia - Balkan Brass Battle (2011)
Menu
Home Applications
Games Movies
Music TV Shows
Torrents Graphics

Sitemap

RSS
 
Advanced Search
Last News
Site Info
Top Contributors:
  1    supper88 32766
  2    admin 32693
  3    Whisky 10080
  4    Shark_ 8911
  5    creativelivenew 8706
  6    whathesupa 2799
  7    candymypost 840
  8    hvnteam 629
  9    vuong87 3


Articles:
  This Hour: 0
  Today: 0
  This Month: 0
  All Time: 515561


Torrents:
  Today: 0
  Yesterday: 0
  All Time: 156684


Membership:
  Registered Today :0
  This Hour:0
  This Month:0
  Total:14
  Banned:1

{online}
{inform_torrent}
Friend:
We Recomend
Trend
Trend
Ad1

Search In Site

Music : Boban & Marko Markovic Orchestra versus Fanfare Ciocarlia - Balkan Brass Battle (2011)
 
http://i67.fastpic.ru/big/2015/0830/c2/bbd231af6c5939586314b1ad98ba2ec2.jpg

Boban & Marko Markovic Orchestra versus Fanfare Ciocarlia - Balkan Brass Battle (2011)
Folk | 1cd | EAC Rip | Flac + Cue + Log | covers
Asphalt Tango, CD-ATR 2911 | rel: 2011 | 540Mb

It's the kind of battle of the bands to have any fan of Balkan brass music salivating. Serbia's Boban & Marki Markovic Orchestra go head to head with Fanfare Ciocarlia from Romania. Both get to strut their stuff and show what kind of chops they have here, coming together to perform "James Bond Theme," "Asfalt Tango," "Devla," and a pair of others to thrilling, glossy effect, and each offering a take on the classic "Caravan." Each group has its style, which becomes immediately identifiable when heard next to the competition, but they're both thrilling and packed with virtuosic playing.
It doesn't matter what kind of brass you enjoy: whether military bands or the down 'n' dirty music of New Orleans, there's plenty here to excite. For instance, on "Suite a la Ciobanas," a truly stunning display of instrumental talent, the playing is so fast that it's hard to believe the recording isn't speeded up. Fanfare owe more of a debt to the Jewish klezmer music that pervaded the region a century ago, while the Markovics show more of a Western influence. Ultimately, though, it doesn't matter. This is music to be enjoyed, to let your jaw drop at the skill of the players, and to work up a sweat dancing around the room to some remarkable music, some of the best released by either of these superb bands. ~Allmusic

Track listing
01. Fanfare Ciocarlia & Boban & Marko Markovic Orchestra - Battle Call (0:34)
02. Boban & Marko Markovic Orchestra - Mrak Kolo (4:21)
03. Fanfare Ciocarlia - Suita A La Ciobanas (4:13)
04. Fanfare Ciocarlia & Boban & Marko Markovic Orchestra - James Bond Theme (4:11)
05. Fanfare Ciocarlia - Caravan (3:34)
06. Boban & Marko Markovic Orchestra - Caravan (3:18)
07. Fanfare Ciocarlia & Boban & Marko Markovic Orchestra - Devla (4:07)
08. Boban & Marko Markovic Orchestra - Topdzijsko Kolo (3:05)
09. Fanfare Ciocarlia - Dances From the Monastery Hills (2:57)
10. Fanfare Ciocarlia & Boban & Marko Markovic Orchestra - Disco Dzumbus (3:26)
11. Fanfare Ciocarlia - I'm your Gummy Bear (3:13)
12. Boban & Marko Markovic Orchestra - Optisani (3:59)
13. Fanfare Ciocarlia & Boban & Marko Markovic Orchestra - Asfalt Tango (5:14)
~ (46:13)

Exact Audio Copy V1.0 beta 2 from 29. April 2011

EAC extraction logfile from 1. October 2011, 3:03

Boban & Marko Markovic Orchestra & Fanfare Ciocarlia / Balkan Brass Battle - Boban & Marko Markovic Orchestra vs Fanfare Ciocarlia

Used drive : PLEXTOR DVDR PX-L890SA Adapter: 2 ID: 1

Read mode : Secure
Utilize accurate stream : Yes
Defeat audio cache : Yes
Make use of C2 pointers : No

Read offset correction

: 6
Overread into Lead-In and Lead-Out : No
Fill up missing offset samples with silence : Yes
Delete leading and trailing silent blocks : No
Null samples used in CRC calculations : Yes
Used interface
: Native Win32 interface for Win NT & 2000
Gap handling
: Appended to previous track

Used output format : User Defined Encoder
Selected bitrate : 256 kBit/s
Quality : High
Add ID3 tag : No
Command line compressor : C:\Program Files (x86)\Exact Audio Copy\FLAC\FLAC.EXE
Additional command line options : -8 -V -T "ARTIST=%artist%" -T "TITLE=%title%" -T "ALBUM=%albumtitle%" -T "DATE=%year%" -T "TRACKNUMBER=%tracknr%" -T "TOTALTRACKS=%numtracks%" -T "GENRE=%genre%" -T "ALBUMARTIST=%albumartist%" -T "ALBUM ARTIST=%albumartist%

TOC of the extracted CD Track | Start | Length | Start sector | End sector
--1 | 0:00.00 | 0:33.65 | 0 | 2539 2 | 0:33.65 | 4:20.72 | 2540 | 22111 3 | 4:54.62 | 4:13.28 | 22112 | 41114 4 | 9:08.15 | 4:10.53 | 41115 | 59917 5 | 13:18.68 | 3:34.32 | 59918 | 75999 6 | 16:53.25 | 3:18.33 | 76000 | 90882 7 | 20:11.58 | 4:07.00 | 90883 | 109407 8 | 24:18.58 | 3:05.33 | 109408 | 123315 9 | 27:24.16 | 2:56.55 | 123316 | 136570
10 | 30:20.71 | 3:26.31 | 136571 | 152051
11 | 33:47.27 | 3:12.47 | 152052 | 166498
12 | 36:59.74 | 3:59.17 | 166499 | 184440
13 | 40:59.16 | 5:14.13 | 184441 | 208003

Track 1 Filename F:\Flac Rips\01 - Fanfare Ciocarlia & Boban & Marko Markovic Orchestra - Battle Call.wav Pre-gap length 0:00:02.00 Peak level 51.3 %
Extraction speed 0.9 X
Track quality 99.6 %
Test CRC BBB3646E
Copy CRC BBB3646E
Accurately ripped (confidence 2) [7AEF82BD] (AR v1)
Copy OK

Track 2 Filename F:\Flac Rips\02 - Boban & Marko Markovic Orchestra - Mrak Kolo.wav Peak level 100.0 %
Extraction speed 3.0 X
Track quality 99.9 %
Test CRC 848DDEE1
Copy CRC 848DDEE1
Accurately ripped (confidence 2) [A832C9A1] (AR v1)
Copy OK

Track 3 Filename F:\Flac Rips\03 - Fanfare Ciocarlia - Suita A La Ciobanas.wav Peak level 100.0 %
Extraction speed 4.1 X
Track quality 100.0 %
Test CRC C1AC4793
Copy CRC C1AC4793
Accurately ripped (confidence 2) [A2078450] (AR v1)
Copy OK

Track 4 Filename F:\Flac Rips\04 - Fanfare Ciocarlia & Boban & Marko Markovic Orchestra - James Bond Theme.wav Peak level 100.0 %
Extraction speed 4.5 X
Track quality 100.0 %
Test CRC 7CBAD8A8
Copy CRC 7CBAD8A8
Accurately ripped (confidence 2) [E934DE70] (AR v1)
Copy OK

Track 5 Filename F:\Flac Rips\05 - Fanfare Ciocarlia - Caravan.wav Peak level 100.0 %
Extraction speed 3.6 X
Track quality 99.9 %
Test CRC 04C3C916
Copy CRC 04C3C916
Accurately ripped (confidence 2) [4DFD41F7] (AR v1)
Copy OK

Track 6 Filename F:\Flac Rips\06 - Boban & Marko Markovic Orchestra - Caravan.wav Peak level 100.0 %
Extraction speed 4.8 X
Track quality 100.0 %
Test CRC 3B06E498
Copy CRC 3B06E498
Accurately ripped (confidence 2) [C3419942] (AR v1)
Copy OK

Track 7 Filename F:\Flac Rips\07 - Fanfare Ciocarlia & Boban & Marko Markovic Orchestra - Devla.wav Peak level 100.0 %
Extraction speed 4.2 X
Track quality 99.9 %
Test CRC 3427A6AC
Copy CRC 3427A6AC
Accurately ripped (confidence 2) [8637A09F] (AR v1)
Copy OK

Track 8 Filename F:\Flac Rips\08 - Boban & Marko Markovic Orchestra - Topdzijsko Kolo.wav Peak level 100.0 %
Extraction speed 5.3 X
Track quality 100.0 %
Test CRC 29CBB0A6
Copy CRC 29CBB0A6
Accurately ripped (confidence 2) [A70B2633] (AR v1)
Copy OK

Track 9 Filename F:\Flac Rips\09 - Fanfare Ciocarlia - Dances From the Monastery Hills.wav Peak level 100.0 %
Extraction speed 5.4 X
Track quality 100.0 %
Test CRC 5758D3B3
Copy CRC 5758D3B3
Accurately ripped (confidence 2) C703404 (AR v1)
Copy OK

Track 10 Filename F:\Flac Rips\10 - Fanfare Ciocarlia & Boban & Marko Markovic Orchestra - Disco Dzumbus.wav Peak level 100.0 %
Extraction speed 5.7 X
Track quality 100.0 %
Test CRC 2E877549
Copy CRC 2E877549
Accurately ripped (confidence 2) [376A5BCD] (AR v1)
Copy OK

Track 11 Filename F:\Flac Rips\11 - Fanfare Ciocarlia - I'm your Gummy Bear.wav Peak level 100.0 %
Extraction speed 5.9 X
Track quality 100.0 %
Test CRC 58174E0B
Copy CRC 58174E0B
Accurately ripped (confidence 2) [0F8BA57E] (AR v1)
Copy OK

Track 12 Filename F:\Flac Rips\12 - Boban & Marko Markovic Orchestra - Optisani.wav Peak level 100.0 %
Extraction speed 6.3 X
Track quality 100.0 %
Test CRC DFD463E5
Copy CRC DFD463E5
Accurately ripped (confidence 2) 961C886 (AR v1)
Copy OK

Track 13 Filename F:\Flac Rips\13 - Fanfare Ciocarlia & Boban & Marko Markovic Orchestra - Asfalt Tango.wav Peak level 100.0 %
Extraction speed 6.8 X
Track quality 100.0 %
Test CRC E77A0592
Copy CRC E77A0592
Accurately ripped (confidence 2) [F4E02A92] (AR v1)
Copy OK

All tracks accurately ripped

No errors occurred

End of status report

==== Log checksum 1ACBF46362AFCBF2F932050DBBA85757DE3260C9955773C4A832F3F20770C57A ====

[CUETools log; Date: 2015.08.25. 13:03:51; Version: 2.1.5]
[CTDB TOCID: eOdOY0PrVdasGQlTCSt2YUzAb1Y-] found.
Track | CTDB Status
1 | (32/32) Accurately ripped
2 | (32/32) Accurately ripped
3 | (32/32) Accurately ripped
4 | (32/32) Accurately ripped
5 | (32/32) Accurately ripped
6 | (32/32) Accurately ripped
7 | (32/32) Accurately ripped
8 | (32/32) Accurately ripped
9 | (32/32) Accurately ripped
10 | (32/32) Accurately ripped
11 | (32/32) Accurately ripped
12 | (31/32) Accurately ripped
13 | (32/32) Accurately ripped
[AccurateRip ID: 0014f2bb-00d4fe9f-850ad50d] found.
Track [ CRC | V2 ] Status
01 [7aef82bd|f5f3ebb8] (09+23/32) Accurately ripped
02 [a832c9a1|95b4e1d6] (09+23/32) Accurately ripped
03 [a2078450|e10334ce] (09+24/33) Accurately ripped
04 [e934de70|8165280f] (08+23/31) Accurately ripped
05 [4dfd41f7|6a995d83] (09+23/32) Accurately ripped
06 [c3419942|56c7916b] (09+23/32) Accurately ripped
07 [8637a09f|34994125] (09+23/32) Accurately ripped
08 [a70b2633|059db5b2] (09+24/33) Accurately ripped
09 c703404|575d6385 (09+23/32) Accurately ripped
10 [376a5bcd|38f154a1] (09+24/33) Accurately ripped
11 [0f8ba57e|05b61292] (09+24/33) Accurately ripped
12 961c886|587e3869 (09+23/32) Accurately ripped
13 [f4e02a92|9141fd0a] (09+23/32) Accurately ripped

Track Peak [ CRC32 ] [W/O NULL] [ LOG ]
-- 100,0 [DC7B2D73] [3A4A7DCA]
01 51,3 BB3646E [258C37F3] CRC32
02 100,0 [848DDEE1] [E66B1484] CRC32
03 100,0 [C1AC4793] [6280868E] CRC32
04 100,0 [7CBAD8A8] [D627B66E] CRC32
05 100,0 [04C3C916] [89EF5661] CRC32
06 100,0 [3B06E498] [3212BBCD] CRC32
07 100,0 [3427A6AC] [10CE59B8] CRC32
08 100,0 [29CBB0A6] [19811E3B] CRC32
09 100,0 [5758D3B3] [74A5A0F6] CRC32
10 100,0 [2E877549] [7738D5B3] CRC32
11 100,0 [58174E0B] [D46864FD] CRC32
12 100,0 [DFD463E5] [F1AFDF14] CRC32
13 100,0 [E77A0592] [979DD5BD] CRC32

original uploader unknown

password: asd
DOWNLOAD LINKS:
Buy Premium To Support Me & Get Resumable Support & Max Speed


Links are Interchangeable - No Password - Single Extraction

Boban & Marko Markovic Orchestra versus Fanfare Ciocarlia - Balkan Brass Battle (2011) Fast Download


Ad2

 
 
 
Dear visitor, you went to the site as an unregistered user. We encourage you to register or enter the site under your name.
 
   
 
 (Votes #: 0)