2013Zone For Latest Downloads

 
     
 
Legal Downloads » Music » Bob Dylan - Bob Dylan (1962) [2015, Mobile Fidelity Sound Lab, UDSACD 2122]
Menu
Home Applications
Games Movies
Music TV Shows
Torrents Graphics

Sitemap

RSS
 
Advanced Search
Last News
Site Info
Top Contributors:
  1    supper88 32766
  2    admin 32693
  3    Whisky 10080
  4    Shark_ 8911
  5    creativelivenew 8706
  6    whathesupa 2799
  7    candymypost 840
  8    hvnteam 629
  9    vuong87 3


Articles:
  This Hour: 0
  Today: 0
  This Month: 10
  All Time: 515561


Torrents:
  Today: 0
  Yesterday: 0
  All Time: 156684


Membership:
  Registered Today :0
  This Hour:0
  This Month:0
  Total:14
  Banned:1

{online}
{inform_torrent}
Friend:
We Recomend
Trend
Trend
Ad1

Search In Site

Music : Bob Dylan - Bob Dylan (1962) [2015, Mobile Fidelity Sound Lab, UDSACD 2122]
 
http://i68.fastpic.ru/big/2015/0830/7b/356958089e8049275e779d0f924a8f7b.jpg

Bob Dylan - Bob Dylan (1962)
EAC | Flac(Image) + Cue + Log & MP3 CBR 320Kbps
Mobile Fidelity Sound Lab, UDSACD 2122 | ~ 225 or 107 Mb | Scans(png) -> 167 Mb
Folk Rock

"Bob Dylan's first album is a lot like the debut albums by the Beatles and the Rolling Stones -- a sterling effort, outclassing most, if not all, of what came before it in the genre, but similarly eclipsed by the artist's own subsequent efforts. The difference was that not very many people heard Bob Dylan on its original release (originals on the early-'60s Columbia label are choice collectibles) because it was recorded with a much smaller audience and musical arena in mind..."


Tracklist:

01 You're No Good
02 Talkin' New York
03 In My Time Of Dyin'
04 Man Of Constant Sorrow
05 Fixin' To Die
06 Pretty Peggy-O
07 Highway 51
08 Gospel Plow
09 Baby, Let Me Follow You Down
10 House Of The Risin' Sun
11 Freight Train Blues
12 Song To Woody
13 See That My Grave Is Kept Clean

Exact Audio Copy V1.1 from 23. June 2015

EAC extraction logfile from 22. August 2015, 9:17

Bob Dylan / Bob Dylan MFSL

Used drive : PLEXTOR BD-R PX-B950SA Adapter: 1 ID: 1

Read mode : Secure
Utilize accurate stream : Yes
Defeat audio cache : Yes
Make use of C2 pointers : No

Read offset correction

: 6
Overread into Lead-In and Lead-Out : No
Fill up missing offset samples with silence : Yes
Delete leading and trailing silent blocks : No
Null samples used in CRC calculations : Yes
Used interface
: Native Win32 interface for Win NT & 2000

Used output format : Internal WAV Routines
Sample format : 44.100 Hz; 16 Bit; Stereo

TOC of the extracted CD Track | Start | Length | Start sector | End sector
--1 | 0:00.00 | 1:42.62 | 0 | 7711 2 | 1:42.62 | 3:21.63 | 7712 | 22849 3 | 5:04.50 | 2:41.50 | 22850 | 34974 4 | 7:46.25 | 3:10.37 | 34975 | 49261 5 | 10:56.62 | 2:23.69 | 49262 | 60055 6 | 13:20.56 | 3:26.55 | 60056 | 75560 7 | 16:47.36 | 2:52.67 | 75561 | 88527 8 | 19:40.28 | 1:47.65 | 88528 | 96617 9 | 21:28.18 | 2:37.67 | 96618 | 108459
10 | 24:06.10 | 5:21.09 | 108460 | 132543
11 | 29:27.19 | 2:21.73 | 132544 | 143191
12 | 31:49.17 | 2:45.26 | 143192 | 155592
13 | 34:34.43 | 2:44.22 | 155593 | 167914

Range status and errors

Selected range Filename C:\Users\Meijin\Desktop\ALLexxess\Bob Dylan\1962 Bob Dylan (Hybrid SACD MFSL 2015)\Bob Dylan - Bob Dylan MFSL.wav Peak level 97.5 %
Extraction speed 3.3 X
Range quality 100.0 %
Test CRC 80BADCE1
Copy CRC 80BADCE1
Copy OK

No errors occurred


AccurateRip summary

Track 1 accurately ripped (confidence 6) [E706A963] (AR v2)
Track 2 accurately ripped (confidence 6) [2FBACCA4] (AR v2)
Track 3 accurately ripped (confidence 6) [ADE91D03] (AR v2)
Track 4 accurately ripped (confidence 6) [ED8ED10A] (AR v2)
Track 5 accurately ripped (confidence 6) [C1F2403E] (AR v2)
Track 6 accurately ripped (confidence 6) [FD684813] (AR v2)
Track 7 accurately ripped (confidence 6) [9DB3134E] (AR v2)
Track 8 accurately ripped (confidence 6) [F3345434] (AR v2)
Track 9 accurately ripped (confidence 6) [77F689B2] (AR v2)
Track 10 accurately ripped (confidence 6) [C05C14D5] (AR v2)
Track 11 accurately ripped (confidence 6) [1E66B7BC] (AR v2)
Track 12 accurately ripped (confidence 6) [C66A1817] (AR v2)
Track 13 accurately ripped (confidence 6) [6B7B1291] (AR v2)

All tracks accurately ripped

End of status report

- CUETools DB Plugin V2.1.6

[CTDB TOCID: 6qlO7csnzSrASN_oispvAv2.co8-] found
Submit result: 6qlO7csnzSrASN_oispvAv2.co8- has been confirmed
Track | CTDB Status
1 | (2/2) Accurately ripped
2 | (2/2) Accurately ripped
3 | (2/2) Accurately ripped
4 | (2/2) Accurately ripped
5 | (2/2) Accurately ripped
6 | (2/2) Accurately ripped
7 | (2/2) Accurately ripped
8 | (2/2) Accurately ripped
9 | (2/2) Accurately ripped
10 | (2/2) Accurately ripped
11 | (2/2) Accurately ripped
12 | (2/2) Accurately ripped
13 | (2/2) Accurately ripped

==== Log checksum CF2E868F88B0B37431B4BF6D596DA7DD8BFC07F4E4D19369B65F19FDC5DB3356 ====

foobar2000 1.2.9 / Dynamic Range Meter 1.1.1
log date: 2015-08-28 13:25:56

Analyzed: B. Dylan / Bob Dylan MFSL

DR Peak RMS Duration Track

DR10 -0.46 dB -14.17 dB 1:43 01-You're No Good
DR11 -0.74 dB -16.28 dB 3:22 02-Talkin' New York
DR12 -0.46 dB -16.37 dB 2:42 03-In My Time Of Dyin'
DR10 -1.15 dB -16.34 dB 3:10 04-Man Of Constant Sorrow
DR11 -0.21 dB -16.58 dB 2:24 05-Fixin' To Die
DR10 -1.62 dB -15.38 dB 3:27 06-Pretty Peggy-O
DR11 -0.70 dB -16.62 dB 2:53 07-Highway 51
DR11 -0.74 dB -15.54 dB 1:48 08-Gospel Plow
DR12 -0.62 dB -17.44 dB 2:38 09-Baby, Let Me Follow You Down
DR12 -0.80 dB -17.06 dB 5:21 10-House Of The Risin' Sun
DR10 -0.58 dB -15.22 dB 2:22 11-Freight Train Blues
DR11 -3.21 dB -18.01 dB 2:45 12-Song To Woody
DR12 -1.49 dB -18.07 dB 2:44 13-See That My Grave Is Kept Clean

Number of tracks: 13
Official DR value: DR11

Samplerate: 44100 Hz
Channels: 2
Bits per sample: 16
Bitrate: 746 kbps
Codec: FLAC

[CUETools log; Date: 28.08.2015 13:20:29; Version: 2.1.4]
[CTDB TOCID: 6qlO7csnzSrASN_oispvAv2.co8-] found.
Track | CTDB Status
1 | (3/3) Accurately ripped
2 | (3/3) Accurately ripped
3 | (3/3) Accurately ripped
4 | (3/3) Accurately ripped
5 | (3/3) Accurately ripped
6 | (3/3) Accurately ripped
7 | (3/3) Accurately ripped
8 | (3/3) Accurately ripped
9 | (3/3) Accurately ripped
10 | (3/3) Accurately ripped
11 | (3/3) Accurately ripped
12 | (3/3) Accurately ripped
13 | (3/3) Accurately ripped
[AccurateRip ID: 001171e2-00b091b9-a408be0d] found.
Track [ CRC | V2 ] Status
01 1940d8a|e706a963 (0+6/6) Accurately ripped
02 [a9f2355d|2fbacca4] (0+6/6) Accurately ripped
03 [4e675ac3|ade91d03] (0+6/6) Accurately ripped
04 [3b6e3b99|ed8ed10a] (0+6/6) Accurately ripped
05 [92eaac6b|c1f2403e] (0+6/6) Accurately ripped
06 [c701cee4|fd684813] (0+6/6) Accurately ripped
07 [4f9b469f|9db3134e] (0+6/6) Accurately ripped
08 [102fcdb8|f3345434] (0+6/6) Accurately ripped
09 [5bb4245a|77f689b2] (0+6/6) Accurately ripped
10 [c1df4da8|c05c14d5] (0+6/6) Accurately ripped
11 [3511ced1|1e66b7bc] (0+6/6) Accurately ripped
12 [e0b0e8d2|c66a1817] (0+6/6) Accurately ripped
13 [f97c583e|6b7b1291] (0+6/6) Accurately ripped

Track Peak [ CRC32 ] [W/O NULL] [ LOG ]
-- 97,5 [80BADCE1] [88649E51] CRC32
01 94,8 [310C9C6E] [FF918560]
02 91,8 [7F9AF86E] [0100C759]
03 94,8 [5D852E27] [8002D192]
04 87,5 [3CEAD951] 7E0A9C2
05 97,5 [DBB6DFDC] [3A6FC534]
06 82,9 [0A236CC4] [5CFC1D7A]
07 92,2 [4A3C01FD] FE71E8A
08 91,8 [54FAF87D] [F6EE48D3]
09 93,1 [4146A85F] [73E938C5]
10 91,2 [A18C28C6] [CDDC0A68]
11 93,5 [EB46F719] [5A0223F4]
12 69,1 [1CE652B9] [81DF12B8]
13 84,2 [14DFA580] D79A7FF

http://i71.fastpic.ru/big/2015/0830/61/210ad68a682f1d25cf93bf0ba4d26c61.jpg

DOWNLOAD LINKS:
Buy Premium To Support Me & Get Resumable Support & Max Speed


Links are Interchangeable - No Password - Single Extraction

Bob Dylan - Bob Dylan (1962) [2015, Mobile Fidelity Sound Lab, UDSACD 2122] Fast Download


Ad2

 
 
 
Dear visitor, you went to the site as an unregistered user. We encourage you to register or enter the site under your name.
 
   
 
 (Votes #: 0)