2013Zone For Latest Downloads

 
     
 
Legal Downloads » TV Shows » BBC - Love and Betrayal in India: The White Mughal (2015)
Menu
Home Applications
Games Movies
Music TV Shows
Torrents Graphics

Sitemap

RSS
 
Advanced Search
Last News
Site Info
Top Contributors:
  1    supper88 32766
  2    admin 32693
  3    Whisky 10080
  4    Shark_ 8911
  5    creativelivenew 8706
  6    whathesupa 2799
  7    candymypost 840
  8    hvnteam 629
  9    vuong87 3


Articles:
  This Hour: 0
  Today: 0
  This Month: 30
  All Time: 515561


Torrents:
  Today: 0
  Yesterday: 0
  All Time: 156684


Membership:
  Registered Today :0
  This Hour:0
  This Month:0
  Total:14
  Banned:1

{online}
{inform_torrent}
Friend:
We Recomend
Trend
Trend
Ad1

Search In Site

TV Shows : BBC - Love and Betrayal in India: The White Mughal (2015)
 

http://i71.fastpic.ru/big/2015/0906/a2/db1b6f29349a90ef6f3c0dae274c57a2.jpg
BBC - Love and Betrayal in India: The White Mughal (2015)
HDTV 576p | 1024x576 | .MP4/AVC @ 1144 Kbps | 58mn 58s | Audio: English AAC 132 kbps, 2 channels | Subs: English | 540 MiB
HDTV 1080p | 1920x1080 | .MKV/AVC @ 3200 Kbps | 58mn 58s | Audio: English AAC 132 kbps, 2 channels | Subs: English | 1.40 GiB
Genre: Documentary

"Historian and author William Dalrymple travels to the Deccan Plains of India to trace the romantic love affair between a British diplomat and a young Muslim princess. James Achilles Kirkpatrick was the British East India Company resident at the court of Hyderabad when he risked everything, converting to Islam and, sources suggest, even becoming a double agent, to marry Khair un Nissa 'Most Excellent among Women.' Pursuing this compelling story of seduction and betrayal through the archives across both continents, Dalrymple unearths a world almost entirely unexplored by history. Kirkpatrick's behaviour might appear to breach the conventional boundaries of empire, but it was not unique. At the turn of the 18th century, one in three British men in India, known as white mughals, lived with Indian women, wore local dress and adopted Indian ways, much to the embarrassment of successive colonial administrations. To protect them from growing disapproval their mixed race children were sent back to England for their education and were ultimately absorbed into Victorian society."

General
Unique ID
: 209680714349738489499521204484876485026 (0x9DBF096211B51A8C805C95E621F341A2)
Complete name : BBC.Love.and.Betrayal.in.India.The.White.Mughal.1080p.mkv
Format
: Matroska
Format version : Version 4 / Version 2
File size
: 1.40 GiB
Duration
: 58mn 58s
Overall bit rate : 3 399 Kbps

Video
ID : 1
Format
: AVC
Format/Info
: Advanced Video Codec
Format profile : [email protected]
Format settings, CABAC : Yes
Format settings, ReFrames : 4 frames
Codec ID
: V_MPEG4/ISO/AVC
Duration
: 58mn 58s
Width
: 1 920 pixels
Height
: 1 080 pixels
Display aspect ratio : 16:9
Frame rate mode : Constant
Frame rate
: 25.000 fps
Color space
: YUV
Chroma subsampling

: 4:2:0
Bit depth
: 8 bits
Scan type
: Progressive
Writing library : x264 core 148 r2579 73ae2d1
Encoding settings: cabac=1 / ref=4 / deblock=1:0:0 / analyse=0x3:0x113 / me=umh / subme=9 / psy=1 / psy_rd=1.00:0.00 / mixed_ref=1 / me_range=32 / chroma_me=1 / trellis=1 / 8x8dct=1 / cqm=0 / deadzone=21,11 / fast_pskip=0 / chroma_qp_offset=-2 / threads=3 / lookahead_threads=1 / sliced_threads=0 / nr=0 / decimate=1 / interlaced=0 / bluray_compat=0 / constrained_intra=0 / bframes=16 / b_pyramid=2 / b_adapt=1 / b_bias=0 / direct=1 / weightb=1 / open_gop=0 / weightp=2 / keyint=250 / keyint_min=25 / scenecut=40 / intra_refresh=0 / rc_lookahead=40 / rc=crf / mbtree=1 / crf=21.0 / qcomp=0.60 / qpmin=0 / qpmax=69 / qpstep=4 / ip_ratio=1.40 / aq=1:1.00
Language
: English
Default
: Yes
Forced
: No

Audio
ID : 2
Format
: AAC
Format/Info
: Advanced Audio Codec
Format profile : LC
Codec ID
: A_AAC
Duration
: 58mn 58s
Channel(s)
: 2 channels
Channel positions: Front: L R
Sampling rate : 48.0 KHz
Compression mode : Lossy
Delay relative to video : 9ms
Language
: English
Default
: Yes
Forced
: No

Text
ID : 3
Format
: UTF-8
Codec ID
: S_TEXT/UTF8
Codec ID/Info : UTF-8 Plain Text
Language
: English
Default
: No
Forced
: No

General
Complete name : BBC.Love.and.Betrayal.in.India.The.White.Mughal.576p.mp4
Format
: MPEG-4
Format profile : Base Media
Codec ID
: isom
File size
: 540 MiB
Duration
: 58mn 58s
Overall bit rate mode : Variable
Overall bit rate : 1 281 Kbps

Video
ID : 1
Format
: AVC
Format/Info
: Advanced Video Codec
Format profile : [email protected]
Format settings, CABAC : Yes
Format settings, ReFrames : 4 frames
Codec ID
: avc1
Codec ID/Info : Advanced Video Coding
Duration
: 58mn 58s
Bit rate
: 1 144 Kbps
Maximum bit rate : 5 241 Kbps
Width
: 1 024 pixels
Height
: 576 pixels
Display aspect ratio : 16:9
Frame rate mode : Constant
Frame rate
: 25.000 fps
Color space
: YUV
Chroma subsampling

: 4:2:0
Bit depth
: 8 bits
Scan type
: Progressive
Bits/(Pixel*Frame)

: 0.078
Stream size
: 483 MiB (89%)
Writing library : x264 core 148 r2579 73ae2d1
Encoding settings: cabac=1 / ref=4 / deblock=1:0:0 / analyse=0x3:0x113 / me=umh / subme=7 / psy=1 / psy_rd=1.00:0.00 / mixed_ref=1 / me_range=16 / chroma_me=1 / trellis=1 / 8x8dct=1 / cqm=0 / deadzone=21,11 / fast_pskip=0 / chroma_qp_offset=-2 / threads=3 / lookahead_threads=1 / sliced_threads=0 / nr=0 / decimate=1 / interlaced=0 / bluray_compat=0 / constrained_intra=0 / bframes=16 / b_pyramid=2 / b_adapt=1 / b_bias=0 / direct=1 / weightb=1 / open_gop=0 / weightp=2 / keyint=250 / keyint_min=25 / scenecut=40 / intra_refresh=0 / rc_lookahead=40 / rc=crf / mbtree=1 / crf=20.0 / qcomp=0.60 / qpmin=0 / qpmax=69 / qpstep=4 / ip_ratio=1.40 / aq=1:1.00
Encoded date : UTC 2015-09-04 10:52:40
Tagged date
: UTC 2015-09-04 10:57:38

Audio
ID : 2
Format
: AAC
Format/Info
: Advanced Audio Codec
Format profile : LC
Codec ID
: 40
Duration
: 58mn 58s
Bit rate mode : Variable
Bit rate
: 132 Kbps
Maximum bit rate : 171 Kbps
Channel(s)
: 2 channels
Channel positions: Front: L R
Sampling rate : 48.0 KHz
Compression mode : Lossy
Stream size
: 56.1 MiB (10%)
Language
: English
Encoded date : UTC 2015-09-03 22:20:50
Tagged date
: UTC 2015-09-04 10:57:38

Text
ID : 3
Format
: Timed Text
Codec ID
: tx3g
Duration
: 58mn 20s
Bit rate mode : Variable
Bit rate
: 111 bps
Stream size
: 47.4 KiB (0%)
Language
: English
Encoded date : UTC 2015-09-04 10:57:38
Tagged date
: UTC 2015-09-04 10:57:38

Screenshots:

http://i67.fastpic.ru/big/2015/0906/c4/1a115ecea162af4ecbb6e00784107fc4.jpg

http://i67.fastpic.ru/big/2015/0906/2b/eba36150b10ac0e35c1aeb320f08d22b.jpg

http://i65.fastpic.ru/big/2015/0906/e1/911ac347c86aa34e47853cb2cda260e1.jpg

http://i70.fastpic.ru/big/2015/0906/f3/f2f7bd6fb0ee1fab35f9793edd66cbf3.jpg


DOWNLOAD LINKS:
Buy Premium To Support Me & Get Resumable Support & Max Speed

Rapidgator.net:
n60xq.BBC.Love.and.Betrayal.in.India.The.White.Mughal.1080p.part1.rar.html
n60xq.BBC.Love.and.Betrayal.in.India.The.White.Mughal.1080p.part2.rar.html
n60xq.BBC.Love.and.Betrayal.in.India.The.White.Mughal.1080p.part3.rar.html
n60xq.BBC.Love.and.Betrayal.in.India.The.White.Mughal.1080p.part4.rar.html
n60xq.BBC.Love.and.Betrayal.in.India.The.White.Mughal.576p.part1.rar.html
n60xq.BBC.Love.and.Betrayal.in.India.The.White.Mughal.576p.part2.rar.html

Uploaded.net:
n60xq.BBC.Love.and.Betrayal.in.India.The.White.Mughal.1080p.part1.rar
n60xq.BBC.Love.and.Betrayal.in.India.The.White.Mughal.1080p.part2.rar
n60xq.BBC.Love.and.Betrayal.in.India.The.White.Mughal.1080p.part3.rar
n60xq.BBC.Love.and.Betrayal.in.India.The.White.Mughal.1080p.part4.rar
n60xq.BBC.Love.and.Betrayal.in.India.The.White.Mughal.576p.part1.rar
n60xq.BBC.Love.and.Betrayal.in.India.The.White.Mughal.576p.part2.rar

Nitroflare.com
n60xq.BBC.Love.and.Betrayal.in.India.The.White.Mughal.1080p.part1.rar
n60xq.BBC.Love.and.Betrayal.in.India.The.White.Mughal.1080p.part2.rar
n60xq.BBC.Love.and.Betrayal.in.India.The.White.Mughal.1080p.part3.rar
n60xq.BBC.Love.and.Betrayal.in.India.The.White.Mughal.1080p.part4.rar
n60xq.BBC.Love.and.Betrayal.in.India.The.White.Mughal.576p.part1.rar
n60xq.BBC.Love.and.Betrayal.in.India.The.White.Mughal.576p.part2.rar

Uploadable.ch:
n60xq.BBC.Love.and.Betrayal.in.India.The.White.Mughal.1080p.part1.rar
n60xq.BBC.Love.and.Betrayal.in.India.The.White.Mughal.1080p.part2.rar
n60xq.BBC.Love.and.Betrayal.in.India.The.White.Mughal.1080p.part3.rar
n60xq.BBC.Love.and.Betrayal.in.India.The.White.Mughal.1080p.part4.rar
n60xq.BBC.Love.and.Betrayal.in.India.The.White.Mughal.576p.part1.rar
n60xq.BBC.Love.and.Betrayal.in.India.The.White.Mughal.576p.part2.rar

Links are Interchangeable - No Password - Single Extraction

BBC - Love and Betrayal in India: The White Mughal (2015) Fast Download


Ad2

 
 
 
Dear visitor, you went to the site as an unregistered user. We encourage you to register or enter the site under your name.
 
   
 
 (Votes #: 0)