2013Zone For Latest Downloads

 
     
 
Legal Downloads » Music » VA - MOJO Presents: Life Companion (15 Tracks That Shaped Keith Richards) (2015)
Menu
Home Applications
Games Movies
Music TV Shows
Torrents Graphics

Sitemap

RSS
 
Advanced Search
Last News
Site Info
Top Contributors:
  1    supper88 32766
  2    admin 32693
  3    Whisky 10080
  4    Shark_ 8911
  5    creativelivenew 8706
  6    whathesupa 2799
  7    candymypost 840
  8    hvnteam 629
  9    vuong87 3


Articles:
  This Hour: 0
  Today: 0
  This Month: 0
  All Time: 515561


Torrents:
  Today: 0
  Yesterday: 0
  All Time: 156684


Membership:
  Registered Today :0
  This Hour:0
  This Month:0
  Total:14
  Banned:1

{online}
{inform_torrent}
Friend:
We Recomend
Trend
Trend
Ad1

Search In Site

Music : VA - MOJO Presents: Life Companion (15 Tracks That Shaped Keith Richards) (2015)
 
http://i68.fastpic.ru/big/2015/0906/5e/458178f4f4770a0209d983f829242b5e.jpg

VA - MOJO Presents: Life Companion (15 Tracks That Shaped Keith Richards) (2015)
EAC | Flac(Image) + Cue + Log & MP3 CBR 320Kbps
MOJO | ~ 193 or 104 Mb | Scans Included
Rock / Blues

~ Given away free with MOJO September 2015 ~


VA - MOJO Presents: Life Companion (15 Tracks That Shaped Keith Richards) at Discogs
VA - MOJO Presents: Life Companion (15 Tracks That Shaped Keith Richards) (2015):

http://i66.fastpic.ru/big/2015/0906/9c/4ae416a30d628a98ff09f5d96b8c0f9c.jpg

Tracklist:

01. Have Guitar Will Travel (Scotty Moore Trio) 1:59
02. Little Queenie (Chuck Berry) 2:39
03. Lucille (Little Richard) 2:23
04. Diddley Daddy (Bo Diddley) 2:25
05. First Time I Met The Blues (Buddy Guy) 2:16
06. I'm Gonna Murder My Babe (Pat Hare) 3:09
07. Rollin' Stone (Muddy Waters) 3:05
08. Bright Lights, Big City (Jimmy Reed) 2:34
09. Poison Ivy (The Coasters) 2:39
10. Blue Monday (Fats Domino) 2:14
11. Confessin' The Blues (Jay McShann) 2:49
12. All I Have To Do Is Dream (The Everly Brothers) 2:21
13. Learning The Game (Buddy Holly) 1:59
14. Son Of A Gun (Sanford Clark) 2:33
15. Goodnight Irene (Gordon Jenkins & His Orchestra & The Weavers) 3:21

Writing for track 2 wrongly credited to "Moore Berry"

Track 15 incorrectly listed as "The Nearness of You" by Hoagy Carmichael on the CD insert. Correct track is "Goodnight Irene" by Gordon Jenkins and His Orchestra and The Weavers as listed on page 7 of the magazine. See also page 11 which explains the error. ~ Discogs


Exact Audio Copy V1.0 beta 3 from 29. August 2011

EAC extraction logfile from 12. August 2015, 13:55

Various Artists (Compilations) / MOJO Presents Life Companion

Used drive : HL-DT-STDVD+-RW GH50N Adapter: 0 ID: 1

Read mode : Secure
Utilize accurate stream : Yes
Defeat audio cache : Yes
Make use of C2 pointers : No

Read offset correction

: 667
Overread into Lead-In and Lead-Out : No
Fill up missing offset samples with silence : Yes
Delete leading and trailing silent blocks : No
Null samples used in CRC calculations : Yes
Used interface
: Native Win32 interface for Win NT & 2000

Used output format : User Defined Encoder
Selected bitrate : 768 kBit/s
Quality : High
Add ID3 tag : No
Command line compressor : C:\Program Files (x86)\Exact Audio Copy\FLAC\FLAC.EXE
Additional command line options : -V -8 -T "Date=%year%" -T "Genre=%genre%" %source%

TOC of the extracted CD Track | Start | Length | Start sector | End sector
--1 | 0:00.00 | 1:58.43 | 0 | 8892 2 | 1:58.43 | 2:38.74 | 8893 | 20816 3 | 4:37.42 | 2:23.17 | 20817 | 31558 4 | 7:00.59 | 2:25.09 | 31559 | 42442 5 | 9:25.68 | 2:15.68 | 42443 | 52635 6 | 11:41.61 | 3:09.21 | 52636 | 66831 7 | 14:51.07 | 3:04.58 | 66832 | 80689 8 | 17:55.65 | 2:33.47 | 80690 | 92211 9 | 20:29.37 | 2:38.38 | 92212 | 104099
10 | 23:08.00 | 2:14.13 | 104100 | 114162
11 | 25:22.13 | 2:49.27 | 114163 | 126864
12 | 28:11.40 | 2:20.48 | 126865 | 137412
13 | 30:32.13 | 1:59.32 | 137413 | 146369
14 | 32:31.45 | 2:33.12 | 146370 | 157856
15 | 35:04.57 | 3:21.02 | 157857 | 172933

Range status and errors

Selected range Filename C:\222\2015 - MOJO - Keith\Various Artists (Compilations) - MOJO Presents Life Companion.wav Peak level 99.9 %
Extraction speed 3.0 X
Range quality 100.0 %
Test CRC BF542BDC
Copy CRC BF542BDC
Copy OK

No errors occurred


AccurateRip summary

Track 1 accurately ripped (confidence 1) [7AFA76F8] (AR v1)
Track 2 accurately ripped (confidence 1) [3419B519] (AR v1)
Track 3 accurately ripped (confidence 1) [D6E256C5] (AR v1)
Track 4 accurately ripped (confidence 1) [E9C564FF] (AR v1)
Track 5 accurately ripped (confidence 1) [30D6C769] (AR v1)
Track 6 accurately ripped (confidence 1) [F6C96C77] (AR v1)
Track 7 accurately ripped (confidence 1) [FE4B8D6D] (AR v1)
Track 8 accurately ripped (confidence 1) [5499A656] (AR v1)
Track 9 accurately ripped (confidence 1) [E41D329A] (AR v1)
Track 10 accurately ripped (confidence 1) [5E920634] (AR v1)
Track 11 accurately ripped (confidence 1) [8A323B77] (AR v1)
Track 12 accurately ripped (confidence 1) [81703CCC] (AR v1)
Track 13 accurately ripped (confidence 1) [73C6EFCB] (AR v1)
Track 14 accurately ripped (confidence 1) [1BC052D9] (AR v1)
Track 15 accurately ripped (confidence 1) [0B084284] (AR v1)

All tracks accurately ripped

End of status report

==== Log checksum A5BA8A05DAFB928F801FC30F6041784530B3C31C2F0B0FC96B8406CB255C3625 ====

foobar2000 1.2.9 / Dynamic Range Meter 1.1.1
log date: 2015-09-04 17:05:10

Analyzed: Bo Diddley / MOJO Presents Life Companion (1) Buddy Guy / MOJO Presents Life Companion (2) Buddy Holly / MOJO Presents Life Companion (3)

DR Peak RMS Duration Track

DR11 -0.01 dB -12.10 dB 2:25 04-Diddley Daddy
DR9 -0.01 dB -10.05 dB 2:16 05-First Time I Met The Blues
DR9 -0.72 dB -11.40 dB 1:59 13-Learning The Game

Number of tracks: 3
Official DR value: DR10

Samplerate: 44100 Hz
Channels: 2
Bits per sample: 16
Bitrate: 660 kbps
Codec: FLAC

Analyzed: Chuck Berry / MOJO Presents Life Companion (1) Fats Domino / MOJO Presents Life Companion (2) Gordon Jenkins & His Orchestra & The Weavers / MOJO Presents Life Companion (3)

DR Peak RMS Duration Track

DR10 -0.01 dB -11.06 dB 2:39 02-Little Queenie
DR11 -0.01 dB -11.88 dB 2:14 10-Blue Monday
DR11 -0.01 dB -13.08 dB 3:21 15-Goodnight Irene

Number of tracks: 3
Official DR value: DR11

Samplerate: 44100 Hz
Channels: 2
Bits per sample: 16
Bitrate: 660 kbps
Codec: FLAC

Statistics for: 11-Confessin' The Blues
Number of samples: 7468776
Duration: 2:49
Left Right

Peak Value: -0.01 dB -0.01 dB
Avg RMS: -12.28 dB -12.37 dB
DR channel: 9.66 dB 9.75 dB

Official DR Value: DR10

Samplerate: 44100 Hz
Channels: 2
Bits per sample: 16
Bitrate: 660 kbps
Codec: FLAC

Statistics for: 08-Bright Lights, Big City
Number of samples: 6774936
Duration: 2:34
Left Right

Peak Value: -0.01 dB -0.01 dB
Avg RMS: -10.70 dB -10.59 dB
DR channel: 8.73 dB 8.83 dB

Official DR Value: DR9

Samplerate: 44100 Hz
Channels: 2
Bits per sample: 16
Bitrate: 660 kbps
Codec: FLAC

Analyzed: Little Richard / MOJO Presents Life Companion (1) Muddy Waters / MOJO Presents Life Companion (2)

DR Peak RMS Duration Track

DR9 -0.77 dB -10.61 dB 2:23 03-Lucille
DR11 -0.01 dB -13.52 dB 3:05 07-Rollin' Stone

Number of tracks: 2
Official DR value: DR10

Samplerate: 44100 Hz
Channels: 2
Bits per sample: 16
Bitrate: 660 kbps
Codec: FLAC

Analyzed: Pat Hare / MOJO Presents Life Companion (1) Sanford Clark / MOJO Presents Life Companion (2)

DR Peak RMS Duration Track

DR9 -0.01 dB -11.47 dB 3:09 06-I'm Gonna Murder My Babe
DR11 -0.39 dB -12.94 dB 2:33 14-Son Of A Gun

Number of tracks: 2
Official DR value: DR10

Samplerate: 44100 Hz
Channels: 2
Bits per sample: 16
Bitrate: 660 kbps
Codec: FLAC

Analyzed: Scotty Moore Trio / MOJO Presents Life Companion (1) The Coasters / MOJO Presents Life Companion (2) The Everly Brothers / MOJO Presents Life Companion (3)

DR Peak RMS Duration Track

DR9 -0.10 dB -9.94 dB 1:59 01-Have Guitar Will Travel
DR10 -0.89 dB -11.89 dB 2:39 09-Poison Ivy
DR9 -1.43 dB -11.46 dB 2:21 12-All I Have To Do Is Dream

Number of tracks: 3
Official DR value: DR9

Samplerate: 44100 Hz
Channels: 2
Bits per sample: 16
Bitrate: 660 kbps
Codec: FLAC

[CUETools log; Date: 04.09.2015 13:42:36; Version: 2.1.4]
[CTDB TOCID: AorB3Oi8Kq6ii0vyNm3eHbBl4bc-] found.
Track | CTDB Status
1 | (16/16) Accurately ripped
2 | (16/16) Accurately ripped
3 | (16/16) Accurately ripped
4 | (16/16) Accurately ripped
5 | (16/16) Accurately ripped
6 | (16/16) Accurately ripped
7 | (16/16) Accurately ripped
8 | (16/16) Accurately ripped
9 | (16/16) Accurately ripped
10 | (16/16) Accurately ripped
11 | (16/16) Accurately ripped
12 | (16/16) Accurately ripped
13 | (16/16) Accurately ripped
14 | (16/16) Accurately ripped
15 | (16/16) Accurately ripped
[AccurateRip ID: 0014b008-00ec030e-bc09010f] found.
Track [ CRC | V2 ] Status
01 [7afa76f8|0a57ca30] (1+0/1) Accurately ripped
02 [3419b519|83b71122] (1+0/1) Accurately ripped
03 [d6e256c5|1d73fe08] (1+0/1) Accurately ripped
04 [e9c564ff|4954717b] (1+0/1) Accurately ripped
05 [30d6c769|f515f10e] (1+0/1) Accurately ripped
06 [f6c96c77|5f412468] (1+0/1) Accurately ripped
07 [fe4b8d6d|d43eba24] (1+0/1) Accurately ripped
08 [5499a656|782b6656] (1+0/1) Accurately ripped
09 [e41d329a|f0a981b6] (1+0/1) Accurately ripped
10 [5e920634|5434d29d] (1+0/1) Accurately ripped
11 [8a323b77|6b3edf30] (1+0/1) Accurately ripped
12 [81703ccc|3c3c1043] (1+0/1) Accurately ripped
13 [73c6efcb|3a18b037] (1+0/1) Accurately ripped
14 [1bc052d9|1e689f9a] (1+0/1) Accurately ripped
15 [0b084284|e129cc99] (1+0/1) Accurately ripped

Track Peak [ CRC32 ] [W/O NULL] [ LOG ]
-- 99,9 F542BDC [34B00655] CRC32
01 98,8 [50CDE880] [29B8037B]
02 99,9 [4C9517B8] [47F91079]
03 91,5 [FF5C7243] [48330406]
04 99,9 [E2B1EAE0] [AF92DBF0]
05 99,9 [AC123A52] [71D3CC61]
06 99,9 [1BDEEE85] [26FF4B64]
07 99,9 3662A26 [C9B458A4]
08 99,9 [4D31EFCB] [D203A98D]
09 90,2 [02EE9A46] [859F95A6]
10 99,9 [C3CF3D67] [7D251269]
11 99,8 [D7BFB4B9] [39A24623]
12 84,8 [E394E4C0] [F0D430D8]
13 92,0 [E4C06F5A] [CF00E797]
14 95,6 [99E34759] [182B250F]
15 99,9 [31F8C87D] [45A393CF]

http://i71.fastpic.ru/big/2015/0906/e6/aa920bf4c7bafcc95b9fce99d8c547e6.jpg

All thanks go to Ironbelly

Download VA - MOJO Presents: Life Companion (15 Tracks That Shaped Keith Richards) (2015):


DOWNLOAD LINKS:
Buy Premium To Support Me & Get Resumable Support & Max Speed


Links are Interchangeable - No Password - Single Extraction

VA - MOJO Presents: Life Companion (15 Tracks That Shaped Keith Richards) (2015) Fast Download


Ad2

 
 
 
Dear visitor, you went to the site as an unregistered user. We encourage you to register or enter the site under your name.
 
   
 
 (Votes #: 0)