2013Zone For Latest Downloads

 
     
 
Legal Downloads » TV Shows » CNN - Fresh Dressed (2015)
Menu
Home Applications
Games Movies
Music TV Shows
Torrents Graphics

Sitemap

RSS
 
Advanced Search
Last News
Site Info
Top Contributors:
  1    supper88 32766
  2    admin 32693
  3    Whisky 10080
  4    Shark_ 8911
  5    creativelivenew 8706
  6    whathesupa 2799
  7    candymypost 840
  8    hvnteam 629
  9    vuong87 3


Articles:
  This Hour: 0
  Today: 0
  This Month: 0
  All Time: 515561


Torrents:
  Today: 0
  Yesterday: 0
  All Time: 156684


Membership:
  Registered Today :0
  This Hour:0
  This Month:0
  Total:14
  Banned:1

{online}
{inform_torrent}
Friend:
We Recomend
Trend
Trend
Ad1

Search In Site

TV Shows : CNN - Fresh Dressed (2015)
 

http://i67.fastpic.ru/big/2015/0906/e3/7d4a2417b60487cd11e0e0a5dd28abe3.jpg
CNN - Fresh Dressed (2015)
HDTV | 1280x720 | .MKV/AVC @ 2685 Kbps | 1h 19mn | Audio: English AC3 448 kbps, 6 channels | Subs: None | 1.78 GiB
Genre: Documentary | History

"Fresh Dressed chronicles the history of Hip-Hop Urban fashion and its rise from southern cotton plantations to the gangs of 1970s in the South Bronx, to corporate America, and everywhere in-between. Supported by rich archival materials and in depth interviews with individuals crucial to the evolution of a way of life--and the outsiders who studied and admired them--Fresh Dressed goes to the core of where style was born on the black and brown side of town."

More info

General
Unique ID
: 219072175500271384698516608924965761804 (0xA4CFC42AC836DDB2A188E2DD2A09730C)
Complete name : CNN.Films.Fresh.Dressed.2015.mkv
Format
: Matroska
Format version : Version 2
File size
: 1.78 GiB
Duration
: 1h 19mn
Overall bit rate : 3 197 Kbps

Video
ID : 1
Format
: AVC
Format/Info
: Advanced Video Codec
Format profile : [email protected]
Format settings, CABAC : Yes
Format settings, ReFrames : 5 frames
Codec ID
: V_MPEG4/ISO/AVC
Duration
: 1h 19mn
Bit rate
: 2 685 Kbps
Width
: 1 280 pixels
Height
: 720 pixels
Display aspect ratio : 16:9
Frame rate mode : Constant
Frame rate
: 23.976 fps
Color space
: YUV
Chroma subsampling

: 4:2:0
Bit depth
: 8 bits
Scan type
: Progressive
Bits/(Pixel*Frame)

: 0.122
Stream size
: 1.50 GiB (84%)
Writing library : x264 core 148 r2597 e86f3a1
Encoding settings: cabac=1 / ref=5 / deblock=1:0:0 / analyse=0x3:0x113 / me=umh / subme=8 / psy=1 / psy_rd=1.00:0.00 / mixed_ref=1 / me_range=16 / chroma_me=1 / trellis=1 / 8x8dct=1 / cqm=0 / deadzone=21,11 / fast_pskip=1 / chroma_qp_offset=-2 / threads=12 / lookahead_threads=2 / sliced_threads=0 / nr=0 / decimate=1 / interlaced=0 / bluray_compat=0 / constrained_intra=0 / bframes=3 / b_pyramid=2 / b_adapt=2 / b_bias=0 / direct=3 / weightb=1 / open_gop=0 / weightp=2 / keyint=250 / keyint_min=23 / scenecut=40 / intra_refresh=0 / rc_lookahead=50 / rc=crf / mbtree=1 / crf=21.0 / qcomp=0.60 / qpmin=0 / qpmax=69 / qpstep=4 / ip_ratio=1.40 / aq=1:1.00
Default
: Yes
Forced
: No

Audio
ID : 2
Format
: AC-3
Format/Info
: Audio Coding 3
Mode extension : CM (complete main)
Format settings, Endianness : Big
Codec ID
: A_AC3
Duration
: 1h 19mn
Bit rate mode : Constant
Bit rate
: 448 Kbps
Channel(s)
: 6 channels
Channel positions: Front: L C R, Side: L R, LFE
Sampling rate : 48.0 KHz
Compression mode : Lossy
Stream size
: 256 MiB (14%)
Default
: Yes
Forced
: No

Screenshots:

http://i66.fastpic.ru/big/2015/0906/f3/7679dc472fa036c4428c71ffb3ec4af3.jpg

http://i72.fastpic.ru/big/2015/0906/84/da1d9c7d44b59d95c650f6b2c7bc0984.jpg


DOWNLOAD LINKS:
Buy Premium To Support Me & Get Resumable Support & Max Speed


Links are Interchangeable - No Password - Single Extraction

CNN - Fresh Dressed (2015) Fast Download


Ad2

 
 
 
Dear visitor, you went to the site as an unregistered user. We encourage you to register or enter the site under your name.
 
   
 
 (Votes #: 0)