2013Zone For Latest Downloads

 
     
 
Legal Downloads » Music » VA - Greasy Truckers Party (1972)
Menu
Home Applications
Games Movies
Music TV Shows
Torrents Graphics

Sitemap

RSS
 
Advanced Search
Last News
Site Info
Top Contributors:
  1    supper88 32766
  2    admin 32693
  3    Whisky 10080
  4    Shark_ 8911
  5    creativelivenew 8706
  6    whathesupa 2799
  7    candymypost 840
  8    hvnteam 629
  9    vuong87 3


Articles:
  This Hour: 0
  Today: 0
  This Month: 10
  All Time: 515561


Torrents:
  Today: 0
  Yesterday: 0
  All Time: 156684


Membership:
  Registered Today :0
  This Hour:0
  This Month:0
  Total:14
  Banned:1

{online}
{inform_torrent}
Friend:
We Recomend
Trend
Trend
Ad1

Search In Site

Music : VA - Greasy Truckers Party (1972)
 
http://i70.fastpic.ru/big/2015/0906/44/1623291fc93a3a378dfcf9ab1cce9844.jpg

VA - Greasy Truckers Party (1972)
Rock | 3cd | EAC Rip | Flac + Cue + Log | covers
EMI, 0999 503235 2 4 | rem: 2007 | 1240Mb

The Greasy Truckers Party, as a double-LP set, was the Great White Whale of many a music lover's collecting efforts in the 1970s and '80s -- always talked of being sighted by others and ever-eluding the best efforts. So in 2007, some 30-plus years later, the idea that the original eight-track master tapes had survived, and could be retrieved and -- more to the point -- would be retrieved by someone who cared enough to do something with them (and, equally important, had the time and budget with which to do anything with them) seemed a remote possibility, at best.
But here it is, on three very fully packed CDs, the complete sets of Man, Brinsley Schwarz, and Hawkwind (with Magic Michael & Friends thrown in for good measure), a legendary performance on a legendary night for each band. For those unaware, in the world of British underground rock, the Greasy Truckers Party, as it was billed at the London Roundhouse on February 13, 1972, looms about as large as the Monterey International Pop Festival does in American rock lore; it wasn't the biggest gig ever played by the bands involved, but for reasons of exposure, and resulting word-of-mouth, and the excerpted live album that followed, it came to define what they were capable of, and who they were. Man, who'd shown a lot of promise on their early records leading up to this event, ripped the envelope with the show they put on that night. Hawkwind, who'd enjoyed some recording success and made a big splash at the previous year's Glastonbury Fayre, was boasting a partly new lineup, with a rhythm section comprised of ex-Rocking Vicar Lemmy on bass and Simon King on drums -- they overcame some initial technical problems to do a live set that, despite being abbreviated in earlier releases of this performance, loomed large in their legend for more than a decade. And included in that set on this release is their first-ever performance of "Silver Machine," the song that -- with Lemmy shifted to lead vocals a few months later -- would propel the band to the number three spot on the U.K. singles charts. And then there was Brinsley Schwarz, who were in many ways the most improbable act on this bill -- where the other two groups were known for doing extended jams, running as much as 20 minutes at a clip, the Brinsleys did short songs mostly based on American country music and other traditional forms; indeed, their opening number, "Country Girl," sounds like a lost outtake from the Byrds' Sweetheart of the Rodeo, and is about as far removed as can be from the heavy electric jams of Man that preceded them, or the space rock extravaganzas of Hawkwind, who followed.
The triple-CD version of Greasy Truckers Party is a somewhat more challenging musical animal than that old double album. It's also psychically spellbinding, when it isn't musically dazzling, and there are moments where it's both for long stretches. Man's set comes off very well, their hour's worth of jamming working even better in context and worth the price of admission for any fans of hard rock guitar, and of Deke Leonard's work, especially. It was after hearing this set that their label chief, Andrew Lauder developed a sudden enthusiasm for live recording, and it's easy to see why -- "Spunk Rock" in all of its glory would sell anyone on that, without a false note struck, and even the excessive moments in songs running 20-plus minutes have their place in this setting. Hawkwind fares a little less well, mostly owing to the technical problems inherent in recording a heavily electronic rock sound live. It's easy enough for fans of their sound to compensate mentally for the shortcomings, however, as most of what's supposed to be present is there, just not always balanced properly -- the difficulty lies in the small moments, actually, such as Robert Calvert's vocals, which are difficult to make out on much of "Silver Machine." The best set here, however -- despite a few minor glitches -- is by Brinsley Schwarz, whose set is just about worth the asking price of the triple-CD box. Their 14 songs more than live up to expectations, and this set more than rises to the 27-plus years' worth of expectations anyone may have held waiting to hear it. By the time Brinsley Schwarz get to "Surrender to the Rhythm," you're almost past surrender (as is the crowd, who -- after some initial confusion -- took to the Brinsleys); indeed, listening to that performance, you may suddenly feel, for one moment, unstuck in time, thinking like it was still 1972-1973, that Ian Gomm (who sounds fantastic), Nick Lowe et al, are the best band you've ever heard in your lives -- and maybe the best band you'll ever hear. It's also fascinating to hear the crowd -- most of whom were obviously there for Man and Hawkwind, gradually embrace the Brinsleys' more roots-oriented sound as their set progresses (some other acts on the bill were heckled mercilessly, and never made it to the recording), to a loud round of applause and calls for "More!" after "Surrender to the Rhythm." Magic Michael, who fills out the last ten minutes of disc two, was a London hippie eccentric who was sort of the U.K.'s answer to David Peel -- a future collaborator with Captain Sensible and Rat Scabies of the Damned, he's an acquired musical taste, but a startling cultural artifact of the time, and as long as his presence didn't keep any music off of the collection, you'll be glad that he's here. The packaging on this set is excellent as well, re-creating poster art and advertising and offering biographical information even on the acts that didn't get to perform (there was a power failure) or whose sets, interrupted by hecklers and fights, proved unusable. One couldn't hope or ask for more, 35 years after the fact. ~Allmusic
-

http://i68.fastpic.ru/big/2015/0906/9a/7e8b791e07ff34d0ca72a2122c59739a.jpg

CD1 - Man


Track listing
01. Spunk Rock (22:24)
02. Many Are Called But Few Get Up (10:14)
03. Angel Up (5:51)
04. Bananas - Early Instrumental Version (14:47)
05. Romain (11:30)
~ (64:44)

Personnel
- Micky Jones - guitars, vocals
- Deke Leonard - guitars, vocals
- Martin Ace - bass, vocals
- Terry Williams - drums

Exact Audio Copy V1.0 beta 3 from 29. August 2011

EAC extraction logfile from 2. February 2012, 18:27

Man / Greasy Truckers Party

Used drive : HL-DT-STDVD-RAM GH22NP20 Adapter: 0 ID: 0

Read mode : Secure
Utilize accurate stream : Yes
Defeat audio cache : Yes
Make use of C2 pointers : No

Read offset correction

: 102
Overread into Lead-In and Lead-Out : No
Fill up missing offset samples with silence : Yes
Delete leading and trailing silent blocks : No
Null samples used in CRC calculations : Yes
Used interface
: Native Win32 interface for Win NT & 2000
Gap handling
: Appended to previous track

Used output format : User Defined Encoder
Selected bitrate : 128 kBit/s
Quality : High
Add ID3 tag : No
Command line compressor : C:\Program Files\Exact Audio Copy\Flac\flac.exe
Additional command line options : -8 -V -T "ARTIST=%artist%" -T "TITLE=%title%" -T "ALBUM=%albumtitle%" -T "DATE=%year%" -T "TRACKNUMBER=%tracknr%" -T "GENRE=%genre%" -T "PERFORMER=%albuminterpret%" -T "COMPOSER=%composer%" %haslyrics%--tag-from-file=LYRICS="%lyricsfile%"%haslyrics% -T "ALBUMARTIST=%albumartist%" -T "DISCNUMBER=%cdnumber%" -T "TOTALDISCS=%totalcds%" -T "TOTALTRACKS=%numtracks%" -T "COMMENT=%comment%" %source% -o %dest%

TOC of the extracted CD Track | Start | Length | Start sector | End sector
--1 | 0:00.00 | 22:23.47 | 0 | 100771 2 | 22:23.47 | 10:13.48 | 100772 | 146794 3 | 32:37.20 | 5:50.44 | 146795 | 173088 4 | 38:27.64 | 14:46.44 | 173089 | 239582 5 | 53:14.33 | 11:29.50 | 239583 | 291307

Track 1 Filename G:\Audio\up\Greasy Truckers Party\Greasy Truckers Party cd1\01 - Spunk Rock.wav Pre-gap length 0:00:02.00 Peak level 99.2 %
Extraction speed 2.3 X
Track quality 100.0 %
Test CRC 4E18FC24
Copy CRC 4E18FC24
Accurately ripped (confidence 4) [C4B331AF] (AR v1)
Copy OK

Track 2 Filename G:\Audio\up\Greasy Truckers Party\Greasy Truckers Party cd1\02 - Many Are Called But Few Get Up.wav Peak level 99.2 %
Extraction speed 2.8 X
Track quality 100.0 %
Test CRC CA658FA5
Copy CRC CA658FA5
Accurately ripped (confidence 4) [636475FC] (AR v1)
Copy OK

Track 3 Filename G:\Audio\up\Greasy Truckers Party\Greasy Truckers Party cd1\03 - Angel Up.wav Peak level 100.0 %
Extraction speed 2.6 X
Track quality 99.9 %
Test CRC 93247FC4
Copy CRC 93247FC4
Accurately ripped (confidence 4) FB050F2 (AR v1)
Copy OK

Track 4 Filename G:\Audio\up\Greasy Truckers Party\Greasy Truckers Party cd1\04 - Bananas - Early Instrumental Version.wav Peak level 99.1 %
Extraction speed 3.4 X
Track quality 100.0 %
Test CRC EBDFCF54
Copy CRC EBDFCF54
Accurately ripped (confidence 4) [CCE28C9E] (AR v1)
Copy OK

Track 5 Filename G:\Audio\up\Greasy Truckers Party\Greasy Truckers Party cd1\05 - Romain.wav Peak level 100.0 %
Extraction speed 3.7 X
Track quality 100.0 %
Test CRC DD8AA292
Copy CRC DD8AA292
Accurately ripped (confidence 4) [E1D72603] (AR v1)
Copy OK

All tracks accurately ripped

No errors occurred

End of status report

==== Log checksum B86A68BA45DF6828911B1F2A663E1751F30D5207C311C2929AD1E6CB1C29CF6C ====

[CUETools log; Date: 2015.09.03. 11:40:32; Version: 2.1.5]
[CTDB TOCID: J9Rvv8WSOP08IPjy4bojQWElKms-] found.
Track | CTDB Status
1 | (2/2) Accurately ripped
2 | (2/2) Accurately ripped
3 | (2/2) Accurately ripped
4 | (2/2) Accurately ripped
5 | (2/2) Accurately ripped
[AccurateRip ID: 000e84fb-00414ef1-480f2c05] found.
Track [ CRC | V2 ] Status
01 [c4b331af|2bfec17f] (06+03/13) Accurately ripped
02 [636475fc|7f20fb98] (06+03/13) Accurately ripped
03 fb050f2|56a1c49a (06+03/13) Accurately ripped
04 [cce28c9e|e3e2f6ee] (06+03/13) Accurately ripped
05 [e1d72603|237786a9] (06+03/13) Accurately ripped
Offsetted by -691:
01 [ecc6b20a] (00/13) No match (V2 was not tested)
02 [f36443db] (00/13) No match (V2 was not tested)
03 a71244b (00/13) No match (V2 was not tested)
04 [4a2ad89f] (00/13) No match (V2 was not tested)
05 [7d92ba3d] (00/13) No match (V2 was not tested)

Track Peak [ CRC32 ] [W/O NULL] [ LOG ]
-- 100,0 [FE9A3F01] [97A6B513]
01 99,2 [4E18FC24] [1EFFFF73] CRC32
02 99,2 [CA658FA5] [C89FE259] CRC32
03 100,0 [93247FC4] [913201B8] CRC32
04 99,1 [EBDFCF54] [3449D57C] CRC32
05 100,0 [DD8AA292] [D499DBF9] CRC32

-

http://i68.fastpic.ru/big/2015/0906/53/6877f4a22fd349cd46383ba897197153.jpg

CD2 - Brinsley Schwarz & Magic Michael


Track listing
01. Intro (1:07)
02. Country Girl (3:13)
03. One More Day (3:02)
04. Unknown Number (2:47)
05. She's Got to Be Real (3:34)
06. Home Work (2:55)
07. Nervous on the Road (But Can't Stay at Home) (5:12)
08. Range War (2:25)
09. Silver Pistol (3:39)
10. Going Down the Road (Trad.) (6:03)
11. Midnight Train (Trad.) (4:22)
12. Private Number (3:52)
13. It's Just My Way of Saying Thank You (6:35)
14. Wonder Woman (4:02)
15. I'm Ahead If I Can Quit While I'm Behind (4:23)
16. Surrender to the Rhythm (4:25)
17. Music Belongs to the People (9:45)
~ (71:21)

Personnel
- Brinsley Schwarz - guitar, piano
- Ian Gomm - guitar, bass, vocals
- Billy Rankin - drums
- Bob Andrews - piano, organ, vocals
- Nick Lowe - bass, guitar, vocals
- Magic Michael (Michael Cousins) - acoustic guitar, vocals

Exact Audio Copy V1.0 beta 3 from 29. August 2011

EAC extraction logfile from 2. February 2012, 20:55

Brinsley Schwarz & Magic Michael / Greasy Truckers Party

Used drive : HL-DT-STDVD-RAM GH22NP20 Adapter: 0 ID: 0

Read mode : Secure
Utilize accurate stream : Yes
Defeat audio cache : Yes
Make use of C2 pointers : No

Read offset correction

: 102
Overread into Lead-In and Lead-Out : No
Fill up missing offset samples with silence : Yes
Delete leading and trailing silent blocks : No
Null samples used in CRC calculations : Yes
Used interface
: Native Win32 interface for Win NT & 2000
Gap handling
: Appended to previous track

Used output format : User Defined Encoder
Selected bitrate : 128 kBit/s
Quality : High
Add ID3 tag : No
Command line compressor : C:\Program Files\Exact Audio Copy\Flac\flac.exe
Additional command line options : -8 -V -T "ARTIST=%artist%" -T "TITLE=%title%" -T "ALBUM=%albumtitle%" -T "DATE=%year%" -T "TRACKNUMBER=%tracknr%" -T "GENRE=%genre%" -T "PERFORMER=%albuminterpret%" -T "COMPOSER=%composer%" %haslyrics%--tag-from-file=LYRICS="%lyricsfile%"%haslyrics% -T "ALBUMARTIST=%albumartist%" -T "DISCNUMBER=%cdnumber%" -T "TOTALDISCS=%totalcds%" -T "TOTALTRACKS=%numtracks%" -T "COMMENT=%comment%" %source% -o %dest%

TOC of the extracted CD Track | Start | Length | Start sector | End sector
--1 | 0:00.00 | 1:06.44 | 0 | 4993 2 | 1:06.44 | 3:12.63 | 4994 | 19456 3 | 4:19.32 | 3:02.32 | 19457 | 33138 4 | 7:21.64 | 2:46.66 | 33139 | 45654 5 | 10:08.55 | 3:34.09 | 45655 | 61713 6 | 13:42.64 | 2:54.47 | 61714 | 74810 7 | 16:37.36 | 5:11.60 | 74811 | 98195 8 | 21:49.21 | 2:25.09 | 98196 | 109079 9 | 24:14.30 | 3:38.58 | 109080 | 125487
10 | 27:53.13 | 6:02.57 | 125488 | 152694
11 | 33:55.70 | 4:22.35 | 152695 | 172379
12 | 38:18.30 | 3:52.27 | 172380 | 189806
13 | 42:10.57 | 6:34.72 | 189807 | 219428
14 | 48:45.54 | 4:02.14 | 219429 | 237592
15 | 52:47.68 | 4:22.69 | 237593 | 257311
16 | 57:10.62 | 4:25.36 | 257312 | 277222
17 | 61:36.23 | 9:45.07 | 277223 | 321104

Track 1 Filename G:\Audio\up\Greasy Truckers Party\Greasy Truckers Party cd2\01 - Intro.wav Pre-gap length 0:00:02.00 Peak level 86.0 %
Extraction speed 1.2 X
Track quality 100.0 %
Test CRC B5AA37F9
Copy CRC B5AA37F9
Accurately ripped (confidence 4) [1849FD36] (AR v1)
Copy OK

Track 2 Filename G:\Audio\up\Greasy Truckers Party\Greasy Truckers Party cd2\02 - Country Girl.wav Peak level 99.1 %
Extraction speed 1.6 X
Track quality 100.0 %
Test CRC 89E479E2
Copy CRC 89E479E2
Accurately ripped (confidence 4) [69A8CDCF] (AR v1)
Copy OK

Track 3 Filename G:\Audio\up\Greasy Truckers Party\Greasy Truckers Party cd2\03 - One More Day.wav Peak level 99.1 %
Extraction speed 1.8 X
Track quality 100.0 %
Test CRC 4C5827E5
Copy CRC 4C5827E5
Accurately ripped (confidence 4) [638D409D] (AR v1)
Copy OK

Track 4 Filename G:\Audio\up\Greasy Truckers Party\Greasy Truckers Party cd2\04 - Unknown Number.wav Peak level 99.2 %
Extraction speed 1.8 X
Track quality 100.0 %
Test CRC EE24135D
Copy CRC EE24135D
Accurately ripped (confidence 4) [50F9F95B] (AR v1)
Copy OK

Track 5 Filename G:\Audio\up\Greasy Truckers Party\Greasy Truckers Party cd2\05 - She's Got to Be Real.wav Peak level 100.0 %
Extraction speed 1.7 X
Track quality 99.9 %
Test CRC D06C4CE1
Copy CRC D06C4CE1
Accurately ripped (confidence 4) [302AD99C] (AR v1)
Copy OK

Track 6 Filename G:\Audio\up\Greasy Truckers Party\Greasy Truckers Party cd2\06 - Home Work.wav Peak level 100.0 %
Extraction speed 1.8 X
Track quality 99.9 %
Test CRC D4ED7B3E
Copy CRC D4ED7B3E
Accurately ripped (confidence 4) 9E89CE0 (AR v1)
Copy OK

Track 7 Filename G:\Audio\up\Greasy Truckers Party\Greasy Truckers Party cd2\07 - Nervous on the Road (But Can't Stay at Home).wav Peak level 99.2 %
Extraction speed 2.4 X
Track quality 100.0 %
Test CRC 0D199AD2
Copy CRC 0D199AD2
Accurately ripped (confidence 4) [3F29EB27] (AR v1)
Copy OK

Track 8 Filename G:\Audio\up\Greasy Truckers Party\Greasy Truckers Party cd2\08 - Range War.wav Peak level 99.2 %
Extraction speed 2.2 X
Track quality 100.0 %
Test CRC 472C7BF5
Copy CRC 472C7BF5
Accurately ripped (confidence 4) [F648FCB5] (AR v1)
Copy OK

Track 9 Filename G:\Audio\up\Greasy Truckers Party\Greasy Truckers Party cd2\09 - Silver Pistol.wav Peak level 99.1 %
Extraction speed 2.2 X
Track quality 99.9 %
Test CRC 7261B26E
Copy CRC 7261B26E
Accurately ripped (confidence 3) 2161663 (AR v1)
Copy OK

Track 10 Filename G:\Audio\up\Greasy Truckers Party\Greasy Truckers Party cd2\10 - Going Down the Road (Trad.).wav Peak level 99.2 %
Extraction speed 2.8 X
Track quality 100.0 %
Test CRC A96BDAA6
Copy CRC A96BDAA6
Accurately ripped (confidence 4) [81307D98] (AR v1)
Copy OK

Track 11 Filename G:\Audio\up\Greasy Truckers Party\Greasy Truckers Party cd2\11 - Midnight Train (Trad.).wav Peak level 99.1 %
Extraction speed 2.8 X
Track quality 100.0 %
Test CRC B4687138
Copy CRC B4687138
Accurately ripped (confidence 4) [0E54DA70] (AR v1)
Copy OK

Track 12 Filename G:\Audio\up\Greasy Truckers Party\Greasy Truckers Party cd2\12 - Private Number.wav Peak level 99.1 %
Extraction speed 2.9 X
Track quality 100.0 %
Test CRC BC48A8F7
Copy CRC BC48A8F7
Accurately ripped (confidence 4) [0A80B278] (AR v1)
Copy OK

Track 13 Filename G:\Audio\up\Greasy Truckers Party\Greasy Truckers Party cd2\13 - It's Just My Way of Saying Thank You.wav Peak level 99.2 %
Extraction speed 3.2 X
Track quality 100.0 %
Test CRC 45BC717C
Copy CRC 45BC717C
Accurately ripped (confidence 4) [E88909D2] (AR v1)
Copy OK

Track 14 Filename G:\Audio\up\Greasy Truckers Party\Greasy Truckers Party cd2\14 - Wonder Woman.wav Peak level 99.2 %
Extraction speed 3.2 X
Track quality 100.0 %
Test CRC C4FF6318
Copy CRC C4FF6318
Accurately ripped (confidence 4) [25D58AD6] (AR v1)
Copy OK

Track 15 Filename G:\Audio\up\Greasy Truckers Party\Greasy Truckers Party cd2\15 - I'm Ahead If I Can Quit While I'm Behind.wav Peak level 99.1 %
Extraction speed 2.9 X
Track quality 99.9 %
Test CRC DC65218A
Copy CRC DC65218A
Accurately ripped (confidence 4) [AC96F13A] (AR v1)
Copy OK

Track 16 Filename G:\Audio\up\Greasy Truckers Party\Greasy Truckers Party cd2\16 - Surrender to the Rhythm.wav Peak level 99.2 %
Extraction speed 3.4 X
Track quality 100.0 %
Test CRC EBEED978
Copy CRC EBEED978
Accurately ripped (confidence 4) [EE3B2C00] (AR v1)
Copy OK

Track 17 Filename G:\Audio\up\Greasy Truckers Party\Greasy Truckers Party cd2\17 - Music Belongs to the People.wav Peak level 99.1 %
Extraction speed 3.8 X
Track quality 100.0 %
Test CRC 4C3C06AC
Copy CRC 4C3C06AC
Accurately ripped (confidence 4) [3DA37E63] (AR v1)
Copy OK

All tracks accurately ripped

No errors occurred

End of status report

==== Log checksum 3A7EB3AC807BED94F237FF05C1F18F462561AF6FC9F4AA53AFDCC69BD3AA85C1 ====

[CUETools log; Date: 2015.09.03. 11:43:53; Version: 2.1.5]
[CTDB TOCID: gK67oIg3wEFmHtTepj.AHJAl4SM-] found.
Track | CTDB Status
1 | (2/2) Accurately ripped
2 | (2/2) Accurately ripped
3 | (2/2) Accurately ripped
4 | (2/2) Accurately ripped
5 | (2/2) Accurately ripped
6 | (2/2) Accurately ripped
7 | (2/2) Accurately ripped
8 | (2/2) Accurately ripped
9 | (2/2) Accurately ripped
10 | (2/2) Accurately ripped
11 | (2/2) Accurately ripped
12 | (2/2) Accurately ripped
13 | (2/2) Accurately ripped
14 | (2/2) Accurately ripped
15 | (2/2) Accurately ripped
16 | (2/2) Accurately ripped
17 | (2/2) Accurately ripped
[AccurateRip ID: 00249f4e-01e5547e-e710b911] found.
Track [ CRC | V2 ] Status
01 [1849fd36|99c498d4] (5+3/8) Accurately ripped
02 [69a8cdcf|6be0620a] (5+3/8) Accurately ripped
03 [638d409d|94cd0bfe] (5+3/8) Accurately ripped
04 [50f9f95b|d55bb57a] (5+2/7) Accurately ripped
05 [302ad99c|9a77127f] (4+2/6) Accurately ripped
06 9e89ce0|a4296a84 (5+3/8) Accurately ripped
07 [3f29eb27|952d5818] (5+3/8) Accurately ripped
08 [f648fcb5|fd34e333] (5+3/8) Accurately ripped
09 2161663|6f6562f4 (4+3/7) Accurately ripped
10 [81307d98|372d1d02] (5+3/8) Accurately ripped
11 [0e54da70|0f6c5bb6] (5+3/8) Accurately ripped
12 [0a80b278|45a11fdc] (5+3/8) Accurately ripped
13 [e88909d2|762fec7a] (5+3/8) Accurately ripped
14 [25d58ad6|abe68f99] (5+3/8) Accurately ripped
15 [ac96f13a|e4c72a95] (5+3/8) Accurately ripped
16 [ee3b2c00|ebec2a74] (5+3/8) Accurately ripped
17 [3da37e63|0587f177] (5+2/7) Accurately ripped

Track Peak [ CRC32 ] [W/O NULL] [ LOG ]
-- 100,0 [9D9FD9B5] [67D26B0A]
01 86,0 5AA37F9 [CFDB3D19] CRC32
02 99,1 [89E479E2] [2A6C3EAD] CRC32
03 99,1 [4C5827E5] [4625E139] CRC32
04 99,2 [EE24135D] [727CF2EA] CRC32
05 100,0 [D06C4CE1] [138D6B6D] CRC32
06 100,0 [D4ED7B3E] [0FE7CB16] CRC32
07 99,2 [0D199AD2] [9C6AEB81] CRC32
08 99,2 [472C7BF5] [2204AD4B] CRC32
09 99,1 [7261B26E] 4BE6E32 CRC32
10 99,2 [A96BDAA6] [61C62A95] CRC32
11 99,1 4687138 CDD74AA CRC32
12 99,1 C48A8F7 [CFE7BBFF] CRC32
13 99,2 [45BC717C] [99ACE429] CRC32
14 99,2 [C4FF6318] 1376B24 CRC32
15 99,1 [DC65218A] [C67FA54A] CRC32
16 99,2 [EBEED978] [82D79416] CRC32
17 99,1 [4C3C06AC] [04CD8CA4] CRC32

-

http://i68.fastpic.ru/big/2015/0906/78/79bf0f627c5a0c670f4d30021bf3e978.jpg

CD3 - Hawkwind


Track listing
01. Announcemaent (1:58)
02. This Is Your Captain Speaking (1:38)
03. This Is Your Captain Speaking (cont) (2:42)
04. You Shouldn't Do That (10:07)
05. The Awakening (7:50)
06. Master Of The Universe (7:00)
07. Paranoia (5:01)
08. Earth Calling (3:23)
09. Silver Machine (4:26)
10. Welcome To The Future (3:36)
11. Born To Go (9:08)
12. Brainstorm (9:52)
13. DJ Andy Dunkley - End Announcement (1:20)
~ (67:59)

Personnel
- Dave Brock - guitars, vocals
- Nik Turner - saxophone, flute, vocals
- Lemmy (Ian Kilmister) - bass guitar, vocals
- Dik Mik (Michael Davies) - synthesizer
- Del Dettmar - synthesizer
- Simon King - drums
- Robert Calvert - vocals

Exact Audio Copy V1.0 beta 3 from 29. August 2011

EAC extraction logfile from 3. February 2012, 17:15

Hawkwind / Greasy Truckers Party - 1972 FLAC

Used drive : HL-DT-STDVD-RAM GH22NP20 Adapter: 0 ID: 0

Read mode : Secure
Utilize accurate stream : Yes
Defeat audio cache : Yes
Make use of C2 pointers : No

Read offset correction

: 102
Overread into Lead-In and Lead-Out : No
Fill up missing offset samples with silence : Yes
Delete leading and trailing silent blocks : No
Null samples used in CRC calculations : Yes
Used interface
: Native Win32 interface for Win NT & 2000
Gap handling
: Appended to previous track

Used output format : User Defined Encoder
Selected bitrate : 128 kBit/s
Quality : High
Add ID3 tag : No
Command line compressor : C:\Program Files\Exact Audio Copy\Flac\flac.exe
Additional command line options : -8 -V -T "ARTIST=%artist%" -T "TITLE=%title%" -T "ALBUM=%albumtitle%" -T "DATE=%year%" -T "TRACKNUMBER=%tracknr%" -T "GENRE=%genre%" -T "PERFORMER=%albuminterpret%" -T "COMPOSER=%composer%" %haslyrics%--tag-from-file=LYRICS="%lyricsfile%"%haslyrics% -T "ALBUMARTIST=%albumartist%" -T "DISCNUMBER=%cdnumber%" -T "TOTALDISCS=%totalcds%" -T "TOTALTRACKS=%numtracks%" -T "COMMENT=%comment%" %source% -o %dest%

TOC of the extracted CD Track | Start | Length | Start sector | End sector
--1 | 0:00.00 | 1:58.03 | 0 | 8852 2 | 1:58.03 | 1:37.45 | 8853 | 16172 3 | 3:35.48 | 2:41.72 | 16173 | 28319 4 | 6:17.45 | 10:06.38 | 28320 | 73807 5 | 16:24.08 | 7:49.45 | 73808 | 109027 6 | 24:13.53 | 6:59.45 | 109028 | 140497 7 | 31:13.23 | 5:01.19 | 140498 | 163091 8 | 36:14.42 | 3:23.06 | 163092 | 178322 9 | 39:37.48 | 4:26.05 | 178323 | 198277
10 | 44:03.53 | 3:35.68 | 198278 | 214470
11 | 47:39.46 | 9:07.67 | 214471 | 255562
12 | 56:47.38 | 9:51.44 | 255563 | 299931
13 | 66:39.07 | 1:19.38 | 299932 | 305894

Track 1 Filename G:\Audio\up\Greasy Truckers Party\Greasy Truckers Party cd3\01 - Announcemaent.wav Pre-gap length 0:00:02.00 Peak level 94.2 %
Extraction speed 1.4 X
Track quality 100.0 %
Test CRC 17C39491
Copy CRC 17C39491
Accurately ripped (confidence 5) [13577857] (AR v1)
Copy OK

Track 2 Filename G:\Audio\up\Greasy Truckers Party\Greasy Truckers Party cd3\02 - This Is Your Captain Speaking.wav Peak level 82.9 %
Extraction speed 1.1 X
Track quality 99.8 %
Test CRC A335CBF9
Copy CRC A335CBF9
Accurately ripped (confidence 5) [F6318149] (AR v1)
Copy OK

Track 3 Filename G:\Audio\up\Greasy Truckers Party\Greasy Truckers Party cd3\03 - This Is Your Captain Speaking (cont).wav Peak level 94.2 %
Extraction speed 1.6 X
Track quality 100.0 %
Test CRC FDD1D746
Copy CRC FDD1D746
Accurately ripped (confidence 5) [8EC7D97E] (AR v1)
Copy OK

Track 4 Filename G:\Audio\up\Greasy Truckers Party\Greasy Truckers Party cd3\04 - You Shouldn't Do That.wav Peak level 94.6 %
Extraction speed 2.2 X
Track quality 100.0 %
Test CRC B3D39C92
Copy CRC B3D39C92
Accurately ripped (confidence 5) [2D972553] (AR v1)
Copy OK

Track 5 Filename G:\Audio\up\Greasy Truckers Party\Greasy Truckers Party cd3\05 - The Awakening.wav Peak level 92.1 %
Extraction speed 2.5 X
Track quality 100.0 %
Test CRC 542D57A2
Copy CRC 542D57A2
Accurately ripped (confidence 5) [0B5F3737] (AR v1)
Copy OK

Track 6 Filename G:\Audio\up\Greasy Truckers Party\Greasy Truckers Party cd3\06 - Master Of The Universe.wav Peak level 94.7 %
Extraction speed 2.5 X
Track quality 99.9 %
Test CRC 02625DCD
Copy CRC 02625DCD
Accurately ripped (confidence 5) [30FD7929] (AR v1)
Copy OK

Track 7 Filename G:\Audio\up\Greasy Truckers Party\Greasy Truckers Party cd3\07 - Paranoia.wav Peak level 94.6 %
Extraction speed 2.7 X
Track quality 100.0 %
Test CRC B818ADCE
Copy CRC B818ADCE
Accurately ripped (confidence 5) [6256CD93] (AR v1)
Copy OK

Track 8 Filename G:\Audio\up\Greasy Truckers Party\Greasy Truckers Party cd3\08 - Earth Calling.wav Peak level 94.7 %
Extraction speed 2.7 X
Track quality 100.0 %
Test CRC D7F28D59
Copy CRC D7F28D59
Accurately ripped (confidence 5) [6ACA29C2] (AR v1)
Copy OK

Track 9 Filename G:\Audio\up\Greasy Truckers Party\Greasy Truckers Party cd3\09 - Silver Machine.wav Peak level 94.7 %
Extraction speed 2.9 X
Track quality 100.0 %
Test CRC 0D8441B8
Copy CRC 0D8441B8
Accurately ripped (confidence 5) [420318E9] (AR v1)
Copy OK

Track 10 Filename G:\Audio\up\Greasy Truckers Party\Greasy Truckers Party cd3\10 - Welcome To The Future.wav Peak level 94.6 %
Extraction speed 2.9 X
Track quality 100.0 %
Test CRC 595BFEDB
Copy CRC 595BFEDB
Accurately ripped (confidence 5) [D36F8ECE] (AR v1)
Copy OK

Track 11 Filename G:\Audio\up\Greasy Truckers Party\Greasy Truckers Party cd3\11 - Born To Go.wav Peak level 94.7 %
Extraction speed 3.4 X
Track quality 100.0 %
Test CRC 2F5638D5
Copy CRC 2F5638D5
Accurately ripped (confidence 5) [A7707F47] (AR v1)
Copy OK

Track 12 Filename G:\Audio\up\Greasy Truckers Party\Greasy Truckers Party cd3\12 - Brainstorm.wav Peak level 98.5 %
Extraction speed 3.4 X
Track quality 99.9 %
Test CRC B0F495C5
Copy CRC B0F495C5
Accurately ripped (confidence 5) 2077111 (AR v1)
Copy OK

Track 13 Filename G:\Audio\up\Greasy Truckers Party\Greasy Truckers Party cd3\13 - DJ Andy Dunkley - End Announcement.wav Peak level 56.3 %
Extraction speed 2.7 X
Track quality 100.0 %
Test CRC D3E958EF
Copy CRC D3E958EF
Accurately ripped (confidence 5) [F0127A8C] (AR v1)
Copy OK

All tracks accurately ripped

No errors occurred

End of status report

==== Log checksum 3EA7C4036D889B9173A262DB0628DBEDEFFC837559842A4E9F52F25300CB1B18 ====

[CUETools log; Date: 2015.09.03. 11:46:20; Version: 2.1.5]
[CTDB TOCID: ag0TFAqDEKdC1pDN7NTVDQv9EoY-] found.
Track | CTDB Status
1 | (3/3) Accurately ripped
2 | (3/3) Accurately ripped
3 | (3/3) Accurately ripped
4 | (3/3) Accurately ripped
5 | (3/3) Accurately ripped
6 | (3/3) Accurately ripped
7 | (3/3) Accurately ripped
8 | (3/3) Accurately ripped
9 | (3/3) Accurately ripped
10 | (3/3) Accurately ripped
11 | (3/3) Accurately ripped
12 | (3/3) Accurately ripped
13 | (3/3) Accurately ripped
[AccurateRip ID: 001e662a-013ba57e-b90fee0d] found.
Track [ CRC | V2 ] Status
01 [13577857|deb07796] (07+03/14) Accurately ripped
02 [f6318149|9285fd2a] (07+03/14) Accurately ripped
03 [8ec7d97e|02ecdf3e] (07+03/14) Accurately ripped
04 [2d972553|69a4c2e2] (07+03/14) Accurately ripped
05 [0b5f3737|ffb10fc0] (07+03/14) Accurately ripped
06 [30fd7929|7528fc9b] (07+03/14) Accurately ripped
07 [6256cd93|2689336e] (07+03/14) Accurately ripped
08 [6aca29c2|972ed450] (07+03/14) Accurately ripped
09 [420318e9|619a16ff] (07+03/14) Accurately ripped
10 [d36f8ece|d0eb28ae] (07+03/14) Accurately ripped
11 [a7707f47|15ae9403] (07+03/14) Accurately ripped
12 2077111|cdd622f6 (07+03/14) Accurately ripped
13 [f0127a8c|b81302a6] (07+03/14) Accurately ripped
Offsetted by -691:
01 [4364dbda] (00/14) No match (V2 was not tested)
02 a82ef4f (00/14) No match (V2 was not tested)
03 [2a127298] (00/14) No match (V2 was not tested)
04 [783ae118] (00/14) No match (V2 was not tested)
05 [4898e717] (00/14) No match (V2 was not tested)
06 [8219b7de] (00/14) No match (V2 was not tested)
07 [c7e9f652] (00/14) No match (V2 was not tested)
08 [1cb26616] (00/14) No match (V2 was not tested)
09 [46a27bb8] (00/14) No match (V2 was not tested)
10 [5164c4e4] (00/14) No match (V2 was not tested)
11 [4b069f11] (00/14) No match (V2 was not tested)
12 [4f8d519b] (00/14) No match (V2 was not tested)
13 [2c354027] (00/14) No match (V2 was not tested)

Track Peak [ CRC32 ] [W/O NULL] [ LOG ]
-- 98,5 [D2121BC2] [DB08A540]
01 94,2 [17C39491] [E61D0744] CRC32
02 82,9 [A335CBF9] [455A52DA] CRC32
03 94,2 [FDD1D746] [C9AD4D56] CRC32
04 94,6 3D39C92 [8429A251] CRC32
05 92,1 [542D57A2] [0DC2C368] CRC32
06 94,7 [02625DCD] [309FC153] CRC32
07 94,6 818ADCE [87733249] CRC32
08 94,7 [D7F28D59] [1608BA82] CRC32
09 94,7 [0D8441B8] [7AFA795B] CRC32
10 94,6 [595BFEDB] [1D32C8F7] CRC32
11 94,7 [2F5638D5] 987E30E CRC32
12 98,5 0F495C5 [51CF8491] CRC32
13 56,3 [D3E958EF] [5365AD16] CRC32

original uploader unknown
password: asd
DOWNLOAD LINKS:
Buy Premium To Support Me & Get Resumable Support & Max Speed


Links are Interchangeable - No Password - Single Extraction

VA - Greasy Truckers Party (1972) Fast Download


Ad2

 
 
 
Dear visitor, you went to the site as an unregistered user. We encourage you to register or enter the site under your name.
 
   
 
 (Votes #: 0)