2013Zone For Latest Downloads

 
     
 
Legal Downloads » Music » Todd Rundgren - Something/Anything? (1972) 2CD, Remastered Reissue 1999 [Re-Up]
Menu
Home Applications
Games Movies
Music TV Shows
Torrents Graphics

Sitemap

RSS
 
Advanced Search
Last News
Site Info
Top Contributors:
  1    supper88 32766
  2    admin 32671
  3    Whisky 10080
  4    Shark_ 8911
  5    creativelivenew 8706
  6    whathesupa 2799
  7    candymypost 840
  8    hvnteam 629
  9    vuong87 3


Articles:
  This Hour: 0
  Today: 20
  This Month: 58
  All Time: 515616


Torrents:
  Today: 0
  Yesterday: 20
  All Time: 156702


Membership:
  Registered Today :0
  This Hour:0
  This Month:0
  Total:14
  Banned:1

{online}
{inform_torrent}
Friend:
We Recomend
Trend
Trend
Ad1

Search In Site

Music : Todd Rundgren - Something/Anything? (1972) 2CD, Remastered Reissue 1999 [Re-Up]
 
http://i67.fastpic.ru/big/2015/0906/af/8834be1602b3ee56b7013bdcbcedd3af.jpg

Todd Rundgren - Something/Anything? (1972) Remastered Reissue 1999 [2CD]
EAC | FLAC | Tracks (Cue&Log) ~ 558 Mb (incl 5%) | Mp3 (CBR320) ~ 214 Mb (incl 5%) | Scans included
Genre: Pop Rock, Soft Rock, Blue-Eyed Soul | Label: Essential/Castle | # ESD CD 672 | Time: 01:29:17

"Something/Anything?, released in 1972, is Todd Rundgren's third solo album. It peaked at #29 on the Billboard 200 and was certified gold three years after its release, and remains the singer-songwriter's best-selling album. In 2003, the album was ranked number 173 on Rolling Stone magazine's list of the 500 greatest albums of all time."

"After two albums, Todd Rundgren had one hit and a burgeoning cult following, plus growing respect as a hitmaking record producer. There's no question he was busy, but as it turns out, all this work only scratched the surface of his ambition. He had decided to abandon the Runt pretense and recorded a full double album by himself (save for one side). Others had recorded one-man albums before, most notably Stevie Wonder and Paul McCartney, but Rundgren -- without borrowing musically from either artist -- captured the homemade ambience of McCartney with the visionary feel of Music of My Mind, adding an encyclopedic knowledge of pop music from Gilbert & Sullivan through Jimi Hendrix, plus the crazed zeal of a pioneer. Listening to Something/Anything? is a mind-altering trip in itself, no matter how many instantly memorable, shamelessly accessible pop songs are scattered throughout the album. Each side of the double album is a concept onto itself. The first side is "a bouquet of ear-catching melodies"; side two is "the cerebral side"; on side three "the kid gets heavy"; side four is his mock pop operetta, recorded with a full band including the Sales brothers. It gallops through everything -- Carole King tributes ("I Saw the Light"), classic ballads ("Hello It's Me," "It Wouldn't Have Made Any Difference"), Motown ("Wolfman Jack"), blinding power pop ("Couldn't I Just Tell You"), psychedelic hard rock ("Black Maria"), pure weirdness ("I Went to the Mirror"), blue-eyed soul ("Dust in the Wind"), and scores of brilliant songs that don't fall into any particular style ("Cold Morning Light," "It Takes Two to Tango"). It's an amazing journey that's remarkably unpretentious. He may have contributed self-penned liner notes, but Rundgren peppers his writing with self-aware, self-deprecating asides, and he also indulges his bizarre sense of humor with gross-outs ("Piss Aaron") and sheer quirkiness, such as an aural tour of the studio at the beginning of side two. Something/Anything? has a ton of loose ends throughout: plenty of studio tricks, slight songs (but no filler), snippets of dialogue, and purposely botched beginnings, but all these throwaways simply add context -- they're what makes the album into a kaleidoscopic odyssey through the mind of an insanely gifted pop music obsessive. Rundgren occasionally touched on the sheer brilliance of Something/Anything? in his later work, but this extraordinary double album is the one time where his classicist songcraft and messy genius converged to create an utterly unique, glorious record.

Review by Stephen Thomas Erlewine, Allmusic.com
"


Biography
Wiki
Website

Tracklist:


CD1:

01. I Saw The Light (03:01)
02. It Wouldn't Have Made Any Difference (03:49)
03. Wolfman Jack (02:54)
04. Cold Morning Light (03:34)
05. It Takes Two To Tango (This Is For The Girls) (02:41)
06. Sweeter Memories (03:37)
07. Intro (01:11)
08. Breathless (03:15)
09. The Night The Carousel Burnt Down (04:28)
10. Saving Grace (04:11)
11. Marlene (03:53)
12. Song Of The Viking (02:35)
13. I Went To The Mirror (04:02)

CD2:

01. Black Maria (05:20)
02. One More Day (No Word) (03:42)
03. Couldn't I Just Tell You (03:34)
04. Torch Song (02:52)
05. Little Red Lights (04:53)
06. Overture -- My Roots: Money (That's What I Want)/Messin' With the Kid (02:28)
07. Dust in the Wind (03:48)
08. Piss Aaron (03:26)
09. Hello It's Me (04:37)
10. Some Folks Is Even Whiter Than Me (03:59)
11. You Left Me Sore (03:13)
12. Slut (04:02)


Exact Audio Copy V0.99 prebeta 5 from 4. May 2009

Отчёт EAC об извлечении, выполненном 12. сентября 2010, 11:21

Todd Rundgren / Something / Anything? (Disc #1)

Дисковод: Optiarc DVD RW AD-7203A Adapter: 1 ID: 0

Режим чтения : Достоверность
?спользование точного потока : Да
Отключение кэ?а аудио : Да
?спользование указателей C2 : Нет

Коррекция смещения при чтении : 48
Способность читать области Lead-in и Lead-out : Нет
Заполнение пропущенных сэмплов ти?иной : Да
Удаление блоков с ти?иной в начале и конце : Нет
При вычислениях CRC использовались нулевые сэмплы : Да
?нтерфейс : Встроенный Win32-интерфейс для Win NT/2000
Обработка зазоров
: Добавлено к предыдущему треку

Выходной формат : Пользовательский кодировщик
Выбранный битрейт : 128 kBit/s
Качество : Высокий
Добавление ID3-тэга : Нет
Утилита сжатия : C:\Program Files\Exact Audio Copy\Flac\flac.exe
Дополнительные параметры : -8 -V -T "ARTIST=%a" -T "TITLE=%t" -T "ALBUM=%g" -T "DATE=%y" -T "TRACKNUMBER=%n" -T "GENRE=%m" -T "COMMENT=EAC FLAC -8" %s

TOC извлечённого CD Трек | Старт | Длительность | Начальный сектор | Конечный сектор

1 | 0:00.32 | 3:01.65 | 32 | 13671
2 | 3:02.22 | 3:49.40 | 13672 | 30886
3 | 6:51.62 | 2:54.70 | 30887 | 44006
4 | 9:46.57 | 3:34.53 | 44007 | 60109
5 | 13:21.35 | 2:41.00 | 60110 | 72184
6 | 16:02.35 | 3:37.02 | 72185 | 88461
7 | 19:39.37 | 1:11.25 | 88462 | 93811
8 | 20:50.62 | 3:15.13 | 93812 | 108449
9 | 24:06.00 | 4:28.37 | 108450 | 128586
10 | 28:34.37 | 4:11.68 | 128587 | 147479
11 | 32:46.30 | 3:53.62 | 147480 | 165016
12 | 36:40.17 | 2:35.18 | 165017 | 176659
13 | 39:15.35 | 4:02.62 | 176660 | 194871

Трек 1 ?мя файла C:\EAC\01.Todd Rundgren-I Saw The Light.wav Длина предзазора 0:00:02.42 Пиковый уровень 89.8 %
Качество трека 100.0 %
CRC теста 00C3E5B5
CRC копии 00C3E5B5
Точное извлечение (достоверность 5) [4FE7B5AC]
Копирование... OK

Трек 2 ?мя файла C:\EAC\02.Todd Rundgren-It Wouldn't Have Made Any Difference.wav Длина предзазора 0:00:03.22 Пиковый уровень 97.4 %
Качество трека 100.0 %
CRC теста B98A60B1
CRC копии B98A60B1
Точное извлечение (достоверность 6) [6858F926]
Копирование... OK

Трек 3 ?мя файла C:\EAC\03.Todd Rundgren-Wolfman Jack.wav Длина предзазора 0:00:01.36 Пиковый уровень 98.8 %
Качество трека 100.0 %
CRC теста D48342FD
CRC копии D48342FD
Точное извлечение (достоверность 6) [0972B89F]
Копирование... OK

Трек 4 ?мя файла C:\EAC\04.Todd Rundgren-Cold Morning Light.wav Длина предзазора 0:00:00.82 Пиковый уровень 97.4 %
Качество трека 100.0 %
CRC теста D55BDD9A
CRC копии D55BDD9A
Точное извлечение (достоверность 5) [8B106B50]
Копирование... OK

Трек 5 ?мя файла C:\EAC\05.Todd Rundgren-It Takes Two To Tango (This Is For The Girls).wav Пиковый уровень 98.2 %
Качество трека 100.0 %
CRC теста F75D3417
CRC копии F75D3417
Точное извлечение (достоверность 5) [13BA6DC2]
Копирование... OK

Трек 6 ?мя файла C:\EAC\06.Todd Rundgren-Sweeter Memories.wav Пиковый уровень 97.6 %
Качество трека 100.0 %
CRC теста 674307E2
CRC копии 674307E2
Точное извлечение (достоверность 6) [92998347]
Копирование... OK

Трек 7 ?мя файла C:\EAC\07.Todd Rundgren-Intro.wav Длина предзазора 0:00:03.76 Пиковый уровень 82.7 %
Качество трека 100.0 %
CRC теста 02A3EA46
CRC копии 02A3EA46
Точное извлечение (достоверность 5) [73C4E1F5]
Копирование... OK

Трек 8 ?мя файла C:\EAC\08.Todd Rundgren-Breathless.wav Пиковый уровень 66.2 %
Качество трека 100.0 %
CRC теста F727F66C
CRC копии F727F66C
Точное извлечение (достоверность 5) [1A47E371]
Копирование... OK

Трек 9 ?мя файла C:\EAC\09.Todd Rundgren-The Night The Carousel Burnt Down.wav Пиковый уровень 81.9 %
Качество трека 100.0 %
CRC теста 6A315C42
CRC копии 6A315C42
Точное извлечение (достоверность 5) [D66FF052]
Копирование... OK

Трек 10 ?мя файла C:\EAC\10.Todd Rundgren-Saving Grace.wav Пиковый уровень 95.9 %
Качество трека 100.0 %
CRC теста A4384CE6
CRC копии A4384CE6
Точное извлечение (достоверность 5) [92FF2147]
Копирование... OK

Трек 11 ?мя файла C:\EAC\11.Todd Rundgren-Marlene.wav Пиковый уровень 96.9 %
Качество трека 100.0 %
CRC теста 7014BE11
CRC копии 7014BE11
Точное извлечение (достоверность 6) [A0DBAF95]
Копирование... OK

Трек 12 ?мя файла C:\EAC\12.Todd Rundgren-Song Of The Viking.wav Пиковый уровень 79.5 %
Качество трека 100.0 %
CRC теста 8566F710
CRC копии 8566F710
Точное извлечение (достоверность 5) [93388E9D]
Копирование... OK

Трек 13 ?мя файла C:\EAC\13.Todd Rundgren-I Went To The Mirror.wav Длина предзазора 0:00:04.10 Пиковый уровень 98.8 %
Качество трека 100.0 %
CRC теста 39752106
CRC копии 39752106
Точное извлечение (достоверность 5) [5FA63E7B]
Копирование... OK

Все треки извлечены точно

О?ибок не произо?ло

Конец отчёта

foobar2000 1.1.16 / Dynamic Range Meter 1.1.1
log date: 2012-11-21 19:17:50

Analyzed: Todd Rundgren / Something / Anything? (Disc #1)

DR Peak RMS Duration Track

DR11 -0.93 dB -13.74 dB 3:02 01-I Saw The Light
DR12 -0.23 dB -15.30 dB 3:50 02-It Wouldn't Have Made Any Difference
DR11 -0.10 dB -12.56 dB 2:55 03-Wolfman Jack
DR12 -0.23 dB -13.94 dB 3:35 04-Cold Morning Light
DR10 -0.15 dB -11.43 dB 2:41 05-It Takes Two To Tango (This Is For The Girls)
DR11 -0.21 dB -12.69 dB 3:37 06-Sweeter Memories
DR13 -1.64 dB -19.27 dB 1:11 07-Intro
DR11 -3.57 dB -15.48 dB 3:15 08-Breathless
DR10 -1.73 dB -14.32 dB 4:28 09-The Night The Carousel Burnt Down
DR10 -0.36 dB -13.49 dB 4:12 10-Saving Grace
DR12 -0.27 dB -15.38 dB 3:54 11-Marlene
DR10 -1.99 dB -13.94 dB 2:35 12-Song Of The Viking
DR12 -0.10 dB -15.37 dB 4:03 13-I Went To The Mirror

Number of tracks: 13
Official DR value: DR11

Samplerate: 44100 Hz
Channels: 2
Bits per sample: 16
Bitrate: 668 kbps
Codec: FLAC

Exact Audio Copy V0.99 prebeta 5 from 4. May 2009

Отчёт EAC об извлечении, выполненном 12. сентября 2010, 11:55

Todd Rundgren / Something/Anything? (Disc #2)

Дисковод: Optiarc DVD RW AD-7203A Adapter: 1 ID: 0

Режим чтения : Достоверность
?спользование точного потока : Да
Отключение кэ?а аудио : Да
?спользование указателей C2 : Нет

Коррекция смещения при чтении : 48
Способность читать области Lead-in и Lead-out : Нет
Заполнение пропущенных сэмплов ти?иной : Да
Удаление блоков с ти?иной в начале и конце : Нет
При вычислениях CRC использовались нулевые сэмплы : Да
?нтерфейс : Встроенный Win32-интерфейс для Win NT/2000
Обработка зазоров
: Добавлено к предыдущему треку

Выходной формат : Пользовательский кодировщик
Выбранный битрейт : 128 kBit/s
Качество : Высокий
Добавление ID3-тэга : Нет
Утилита сжатия : C:\Program Files\Exact Audio Copy\Flac\flac.exe
Дополнительные параметры : -8 -V -T "ARTIST=%a" -T "TITLE=%t" -T "ALBUM=%g" -T "DATE=%y" -T "TRACKNUMBER=%n" -T "GENRE=%m" -T "COMMENT=EAC FLAC -8" %s

TOC извлечённого CD Трек | Старт | Длительность | Начальный сектор | Конечный сектор

1 | 0:00.32 | 5:20.15 | 32 | 24046
2 | 5:20.47 | 3:42.50 | 24047 | 40746
3 | 9:03.22 | 3:34.20 | 40747 | 56816
4 | 12:37.42 | 2:52.23 | 56817 | 69739
5 | 15:29.65 | 4:53.10 | 69740 | 91724
6 | 20:23.00 | 2:28.60 | 91725 | 102884
7 | 22:51.60 | 3:48.65 | 102885 | 120049
8 | 26:40.50 | 3:26.37 | 120050 | 135536
9 | 30:07.12 | 4:37.43 | 135537 | 156354
10 | 34:44.55 | 3:59.47 | 156355 | 174326
11 | 38:44.27 | 3:13.35 | 174327 | 188836
12 | 41:57.62 | 4:02.18 | 188837 | 207004

Трек 1 ?мя файла C:\EAC\01.Todd Rundgren-Black Maria.wav Длина предзазора 0:00:02.42 Пиковый уровень 98.8 %
Качество трека 100.0 %
CRC теста 69756817
CRC копии 69756817
Точное извлечение (достоверность 5) [F86CB8FC]
Копирование... OK

Трек 2 ?мя файла C:\EAC\02.Todd Rundgren-One More Day (No Word).wav Пиковый уровень 91.7 %
Качество трека 100.0 %
CRC теста B4DDCB0E
CRC копии B4DDCB0E
Точное извлечение (достоверность 6) [6297CD5C]
Копирование... OK

Трек 3 ?мя файла C:\EAC\03.Todd Rundgren-Couldn't I Just Tell You.wav Пиковый уровень 89.0 %
Качество трека 100.0 %
CRC теста 825CE3EF
CRC копии 825CE3EF
Точное извлечение (достоверность 5) [744239D6]
Копирование... OK

Трек 4 ?мя файла C:\EAC\04.Todd Rundgren-Torch Song.wav Пиковый уровень 81.9 %
Качество трека 100.0 %
CRC теста F8E945DF
CRC копии F8E945DF
Точное извлечение (достоверность 5) [CB406382]
Копирование... OK

Трек 5 ?мя файла C:\EAC\05.Todd Rundgren-Little Red Lights.wav Пиковый уровень 98.8 %
Качество трека 100.0 %
CRC теста 5679B6D8
CRC копии 5679B6D8
Точное извлечение (достоверность 5) 5C93790
Копирование... OK

Трек 6 ?мя файла C:\EAC\06.Todd Rundgren-Overture -- My Roots- Money (That's What I Want),Messin' With the Kid.wav Длина предзазора 0:00:04.33 Пиковый уровень 82.1 %
Качество трека 100.0 %
CRC теста 4C04FE02
CRC копии 4C04FE02
Точное извлечение (достоверность 5) 21B4F09
Копирование... OK

Трек 7 ?мя файла C:\EAC\07.Todd Rundgren-Dust in the Wind.wav Пиковый уровень 98.8 %
Качество трека 100.0 %
CRC теста C182ECA1
CRC копии C182ECA1
Точное извлечение (достоверность 5) [3D7721C9]
Копирование... OK

Трек 8 ?мя файла C:\EAC\08.Todd Rundgren-Piss Aaron.wav Пиковый уровень 96.1 %
Качество трека 100.0 %
CRC теста E1781800
CRC копии E1781800
Точное извлечение (достоверность 6) [210FD8FC]
Копирование... OK

Трек 9 ?мя файла C:\EAC\09.Todd Rundgren-Hello It's Me.wav Пиковый уровень 98.8 %
Качество трека 100.0 %
CRC теста EFBC8932
CRC копии EFBC8932
Точное извлечение (достоверность 6) [4417D5F1]
Копирование... OK

Трек 10 ?мя файла C:\EAC\10.Todd Rundgren-Some Folks Is Even Whiter Than Me.wav Пиковый уровень 98.8 %
Качество трека 100.0 %
CRC теста 79CEABB2
CRC копии 79CEABB2
Точное извлечение (достоверность 5) [CC55DA62]
Копирование... OK

Трек 11 ?мя файла C:\EAC\11.Todd Rundgren-You Left Me Sore.wav Пиковый уровень 96.0 %
Качество трека 100.0 %
CRC теста 64025C22
CRC копии 64025C22
Точное извлечение (достоверность 6) [1546E7A0]
Копирование... OK

Трек 12 ?мя файла C:\EAC\12.Todd Rundgren-Slut.wav Пиковый уровень 98.8 %
Качество трека 100.0 %
CRC теста 8CC8DD6B
CRC копии 8CC8DD6B
Точное извлечение (достоверность 6) [2256F565]
Копирование... OK

Все треки извлечены точно

О?ибок не произо?ло

Конец отчёта

foobar2000 1.1.16 / Dynamic Range Meter 1.1.1
log date: 2012-11-21 19:18:03

Analyzed: Todd Rundgren / Something/Anything? (Disc #2)

DR Peak RMS Duration Track

DR12 -0.10 dB -14.52 dB 5:20 01-Black Maria
DR11 -0.75 dB -13.42 dB 3:43 02-One More Day (No Word)
DR11 -1.01 dB -12.96 dB 3:34 03-Couldn't I Just Tell You
DR10 -1.73 dB -13.91 dB 2:52 04-Torch Song
DR13 -0.10 dB -14.00 dB 4:53 05-Little Red Lights
DR11 -1.70 dB -15.68 dB 2:29 06-Overture -- My Roots: Money (That's What I Want)/Messin' With the Kid
DR11 -0.10 dB -13.67 dB 3:49 07-Dust in the Wind
DR12 -0.34 dB -13.81 dB 3:26 08-Piss Aaron
DR12 -0.10 dB -13.42 dB 4:38 09-Hello It's Me
DR12 -0.10 dB -14.32 dB 4:00 10-Some Folks Is Even Whiter Than Me
DR12 -0.35 dB -15.30 dB 3:13 11-You Left Me Sore
DR12 -0.10 dB -13.54 dB 4:02 12-Slut

Number of tracks: 12
Official DR value: DR12

Samplerate: 44100 Hz
Channels: 2
Bits per sample: 16
Bitrate: 898 kbps
Codec: FLAC

http://i69.fastpic.ru/big/2015/0906/c7/18a3f89fe387ad54efca6cc9fe669fc7.jpg

http://i72.fastpic.ru/big/2015/0906/e6/779ff942a78febd398273eb858abbee6.jpg

All thanks to original releaser - Gera1957


Password: designol

DOWNLOAD LINKS:
Buy Premium To Support Me & Get Resumable Support & Max Speed


Links are Interchangeable - No Password - Single Extraction

Todd Rundgren - Something/Anything? (1972) 2CD, Remastered Reissue 1999 [Re-Up] Fast Download


Ad2

 
 
 
Dear visitor, you went to the site as an unregistered user. We encourage you to register or enter the site under your name.
 
   
 
 (Votes #: 0)