2013Zone For Latest Downloads

 
     
 
Legal Downloads » Music » Dave Baby Cortez - Happy Organs, Wild Guitars And Piano Shuffles (1993) Re-uploaD
Menu
Home Applications
Games Movies
Music TV Shows
Torrents Graphics

Sitemap

RSS
 
Advanced Search
Last News
Site Info
Top Contributors:
  1    supper88 32766
  2    admin 32711
  3    Whisky 10080
  4    Shark_ 8911
  5    creativelivenew 8706
  6    whathesupa 2799
  7    candymypost 840
  8    hvnteam 629
  9    vuong87 3


Articles:
  This Hour: 0
  Today: 0
  This Month: 0
  All Time: 515501


Torrents:
  Today: 0
  Yesterday: 0
  All Time: 156676


Membership:
  Registered Today :0
  This Hour:0
  This Month:0
  Total:14
  Banned:1

{online}
{inform_torrent}
Friend:
Full Download Scripts
Torrent Download
Trend
Trend

Search In Site

Music : Dave Baby Cortez - Happy Organs, Wild Guitars And Piano Shuffles (1993) Re-uploaD
 
http://i66.fastpic.ru/big/2015/0906/ad/e4793f7cb7320e6ba881d711eb3463ad.jpg

Dave Baby Cortez - Happy Organs, Wild Guitars And Piano Shuffles (1993)
EAC Rip | FLAC+CUE+LOG - 269 MB | Full Scans | MP3 CBR 320 Kbps - 165 MB
Rock & Roll / R&B | 58:04 minutes | Label: Clock Records / Ace Records Ltd. | Cat. # CDCHD 386

David Cortez Clowney, known by the stage name Dave "Baby" Cortez is an American pop and R&B organist and pianist. Clowney became the first African-American artist to have an instrumental #1 hit. Before making his big break with an instrumental record, Clowney had sung with two doo-wop groups, the Pearls and the Valentines.
"Though hardly a soulful, bluesy master like Jimmy Smith or dashing experimentalist like Larry Young, organist Dave "Baby" Cortez made his mark in the '50s, '60s, and '70s as a capable, often clever soloist and pop instrumentalist. His flair for catchy melodies, riffs, and hooks resulted in a number one pop and number five R&B hit with "The Happy Organ" in 1959....

http://i72.fastpic.ru/big/2015/0906/48/fed301a99aaea3beea5c3e7b614d1648.jpg

Presented here are 25 songs recorded by Cortez, mostly or entirely, for Clock between 1958 and 1961 -- mostly or entirely because although each track is grouped into a "New York 1958-1961" discography, a couple of them are given the dates 1965 on the CD track listing; the three dated 1993 are presumably unreleased outtakes from the era (although they are not precisely identified as such). The real question is: do you need to hear anything else besides his number one hit (and this album's opener) "The Happy Organ"? For almost everyone, the answer is no. The other songs are average R&B-based rockers, sometimes given a lift above similar generic instrumental fare from the era by Cortez's zippy organ and some sharp guitar (much or all of which was probably played by Jimmy Spruill, who did the guitar solo on "The Happy Organ"). The majority is instrumental, with Cortez occasionally adding vocals that are either perfunctory, or that fall within the ordinary, early Black vocal group style (as on "Love Me as I Love You"). Otherwise, this is for instrumental rock fans only, although Cortez deserves credit for popularizing the organ as a rock instrument. The moody reading of "Summertime" isn't bad, and when he and the band get a little less restrained on "Tootsie," it seems possible that he could have influenced the sound of 1960s soul-rockers who used the organ, like Booker T. & the MG's. Cortez's low-charting, soundalike follow-up to "The Happy Organ," "The Whistling Organ," is included, but his only other big hit, "Rinky Dink" (1962), is not, as it was done for Chess.

-- Richie Unterberger, allmusic.com"


Tracklist

01. The Happy Organ
02. Piano Shuffle
03. Cat Nip
04. Hey Hey Hey
05. Mardi Gras (The Blues)
06. Fiesta
07. Love Me As I Love You
08. The Whistling Organ
09. Hurricane
10. Deep In The Heart Of Texas
11. Do The Slop
12. You're Just Right
13. Red Sails In The Sunset
14. Calypso Love Song
15. Dave's Special
16. I'm Happy
17. Summertime
18. Tootsie
19. It's A Sin To Tell A Lie
20. The Boogie Piano
21. The Boogie Organ
22. The Shift
23. Organ Bounce
24. The Swinging Piano
25. Riffin'

Compilation and archive research by John Broven.

More info @ Wikipedia

Exact Audio Copy V1.0 beta 2 from 29. April 2011

EAC extraction logfile from 22. October 2011, 10:40

Dave Baby Cortez / Happy Organs,Wild Guitars And Piano Shuffles

Used drive : _NEC DVD_RW ND-3550A Adapter: 1 ID: 0

Read mode : Secure
Utilize accurate stream : Yes
Defeat audio cache : Yes
Make use of C2 pointers : No

Read offset correction

: 48
Overread into Lead-In and Lead-Out : No
Fill up missing offset samples with silence : Yes
Delete leading and trailing silent blocks : No
Null samples used in CRC calculations : Yes
Used interface
: Native Win32 interface for Win NT & 2000

Used output format : User Defined Encoder
Selected bitrate : 768 kBit/s
Quality : High
Add ID3 tag : No
Command line compressor : C:\Program Files\Exact Audio Copy\FLAC\FLAC.EXE
Additional command line options : -6 -V -T "ARTIST=%artist%" -T "TITLE=%title%" -T "ALBUM=%albumtitle%" -T "DATE=%year%" -T "TRACKNUMBER=%tracknr%" -T "GENRE=%genre%" -T "COMMENT=%comment%" -T "BAND=%albuminterpret%" -T "COMPOSER=%composer%" %haslyrics%--ta

TOC of the extracted CD Track | Start | Length | Start sector | End sector
--1 | 0:00.33 | 2:05.15 | 33 | 9422 2 | 2:05.48 | 2:05.15 | 9423 | 18812 3 | 4:10.63 | 2:35.67 | 18813 | 30504 4 | 6:46.55 | 1:45.10 | 30505 | 38389 5 | 8:31.65 | 2:43.65 | 38390 | 50679 6 | 11:15.55 | 2:21.48 | 50680 | 61302 7 | 13:37.28 | 2:45.42 | 61303 | 73719 8 | 16:22.70 | 2:04.03 | 73720 | 83022 9 | 18:26.73 | 2:26.47 | 83023 | 94019
10 | 20:53.45 | 2:24.33 | 94020 | 104852
11 | 23:18.03 | 3:14.35 | 104853 | 119437
12 | 26:32.38 | 2:18.15 | 119438 | 129802
13 | 28:50.53 | 2:22.52 | 129803 | 140504
14 | 31:13.30 | 2:16.38 | 140505 | 150742
15 | 33:29.68 | 2:18.32 | 150743 | 161124
16 | 35:48.25 | 1:58.30 | 161125 | 170004
17 | 37:46.55 | 2:27.55 | 170005 | 181084
18 | 40:14.35 | 2:23.63 | 181085 | 191872
19 | 42:38.23 | 2:25.50 | 191873 | 202797
20 | 45:03.73 | 2:16.55 | 202798 | 213052
21 | 47:20.53 | 2:08.15 | 213053 | 222667
22 | 49:28.68 | 2:30.57 | 222668 | 233974
23 | 51:59.50 | 2:11.08 | 233975 | 243807
24 | 54:10.58 | 2:20.00 | 243808 | 254307
25 | 56:30.58 | 1:33.55 | 254308 | 261337

Range status and errors

Selected range Filename C:\FINISH\Dave Baby Cortez - Happy Organs,Wild Guitars And Piano Shuffles (1993)\Dave Baby Cortez - Happy Organs,Wild Guitars And Piano Shuffles.wav Peak level 93.7 %
Extraction speed 5.1 X
Range quality 100.0 %
Test CRC 844543D3
Copy CRC 844543D3
Copy OK

No errors occurred


AccurateRip summary

Track 1 not present in database
Track 2 not present in database
Track 3 accurately ripped (confidence 2) [634F7EBF] (AR v1)
Track 4 accurately ripped (confidence 2) [75BBAC79] (AR v1)
Track 5 accurately ripped (confidence 2) [4DFAE202] (AR v1)
Track 6 accurately ripped (confidence 2) [EDE19E4D] (AR v1)
Track 7 accurately ripped (confidence 2) [2989D7E4] (AR v1)
Track 8 accurately ripped (confidence 2) [36A4D1FE] (AR v1)
Track 9 accurately ripped (confidence 2) [A50694A5] (AR v1)
Track 10 accurately ripped (confidence 2) [F08C4B71] (AR v1)
Track 11 accurately ripped (confidence 2) [C82754EA] (AR v1)
Track 12 accurately ripped (confidence 2) [60973A8C] (AR v1)
Track 13 accurately ripped (confidence 2) [45F6B1A2] (AR v1)
Track 14 accurately ripped (confidence 2) [5425C3E6] (AR v1)
Track 15 accurately ripped (confidence 2) [5D2D686C] (AR v1)
Track 16 accurately ripped (confidence 2) [5855382E] (AR v1)
Track 17 accurately ripped (confidence 2) [8C0EEED4] (AR v1)
Track 18 accurately ripped (confidence 2) [EA8447A6] (AR v1)
Track 19 accurately ripped (confidence 2) [115C08A5] (AR v1)
Track 20 accurately ripped (confidence 2) [27B0F706] (AR v1)
Track 21 accurately ripped (confidence 2) [E78AB3BA] (AR v1)
Track 22 accurately ripped (confidence 2) [05274AE8] (AR v1)
Track 23 accurately ripped (confidence 2) [F93B73D5] (AR v1)
Track 24 accurately ripped (confidence 2) [DBB8080F] (AR v1)
Track 25 accurately ripped (confidence 2) [A5462762] (AR v1)

23 track(s) accurately ripped
2 track(s) not present in the AccurateRip database

Some tracks could not be verified as accurate

End of status report

==== Log checksum A9DB66ED39BE2D46165DA7A27AC05E4699F4B9D4E69D01CE645BF524979A248F ====

Thanks to audelas!

All covers included in both types of archives.
DOWNLOAD LINKS:
Buy Premium To Support Me & Get Resumable Support & Max Speed


Links are Interchangeable - No Password - Single Extraction

Dave Baby Cortez - Happy Organs, Wild Guitars And Piano Shuffles (1993) Re-uploaD Fast Download



 
 
 
Dear visitor, you went to the site as an unregistered user. We encourage you to register or enter the site under your name.
 
   
 
 (Votes #: 0)