2013Zone For Latest Downloads

 
     
 
Legal Downloads » Music » Tchaikovsky - Violin Concerto in D major, Op.35; Sibelius - Voilin Concerto in D minor, Op.47 (1970) [Kyung-Wha Chung, Previn]
Menu
Home Applications
Games Movies
Music TV Shows
Torrents Graphics

Sitemap

RSS
 
Advanced Search
Last News
Site Info
Top Contributors:
  1    supper88 32766
  2    admin 32671
  3    Whisky 10080
  4    Shark_ 8911
  5    creativelivenew 8706
  6    whathesupa 2799
  7    candymypost 840
  8    hvnteam 629
  9    vuong87 3


Articles:
  This Hour: 0
  Today: 0
  This Month: 58
  All Time: 515616


Torrents:
  Today: 0
  Yesterday: 0
  All Time: 156702


Membership:
  Registered Today :0
  This Hour:0
  This Month:0
  Total:14
  Banned:1

{online}
{inform_torrent}
Friend:
We Recomend
Trend
Trend
Ad1

Search In Site

Music : Tchaikovsky - Violin Concerto in D major, Op.35; Sibelius - Voilin Concerto in D minor, Op.47 (1970) [Kyung-Wha Chung, Previn]
 
http://i70.fastpic.ru/big/2015/0906/0c/46e90d9ed5b15c59468fd69f34a5510c.jpg

Tchaikovsky - Violin Concerto in D major, Op.35; Sibelius - Voilin Concerto in D minor, Op.47 (1970) Reissue 2001
Kyung-Wha Chung, violin; London Symphony Orchestra; Andre Previn, conductor

EAC | FLAC | Image (Cue&Log) ~ 304 Mb (incl 5%) | Mp3 (CBR320) ~ 168 Mb (incl 5%) | Scans included
Genre: Classical | Label: Decca | # UCCD-7007, 468 707-2 | Time: 01:06:25

"This was Kyung-Wha Chung's first recording, made when she was 22, just after her sensational London debut in the Tchaikovsky Concerto with the same orchestra and conductor. It is splendid. Only a young, radiantly talented player could make these two tired warhorses sound so fresh and vital; only a consummately masterful one could sail through their daunting technical difficulties with such easy virtuosity and perfection. Her tone is flawlessly beautiful, varied in color and inflection; she puts her technical resources entirely at the service of the music, giving every note meaning and honestly felt expression without exaggeration or sentimentality. The Tchaikovsky has charm, humor, sparkle; the slow movement is dreamy, wistful, and unmuted but subdued and inward. The Sibelius is dark and bleak but full-blooded, passionate, and intense. The orchestra sounds and plays better in the Sibelius."

"Kyung-Wha Chung was 22 years old when she recorded these two heavyweight concerti in Kingsway Hall with the London Symphony under André Previn. It was Chung's debut recording session, held in the wake of her unexpected success in London as a last-minute replacement for Itzhak Perlman. Although the orchestra was not impressed that it was being fronted by the Leventritt Award winning "amateur" as they dubbed her, audiences felt differently, and this little triumph has made a big difference for every Asian classical virtuoso who has followed in Chung's wake. Therefore, London's Tchaikovsky/Sibelius: Violin Concertos is more than just a key early recording for a major concert artist; it is a historical milestone in the field of Asian virtuosi in the Western classical arena.

Be that as it may, many recorded "milestones" of various kinds bring with them flaws that we either learn to live with or damn with faint praise. Not this record; it is easy to see why the London audience warmed up to her playing so quickly. Chung's Tchaikovsky concerto begins with a long, generous, continuous flowing line that is simply beautiful to behold. While in technical terms Chung's playing is an amazing combination of crispness and fluidity, it's not the technique that one comes away with here; it's the range of emotions, from sadness to love, to resolve and elsewhere, plus a profound sense of determination and will; that's what Chung has to offer in spades. This is precisely what she brings to these over-familiar, too often played concerti, and she makes them sound fresh again, as though one is hearing them for the first time. The Sibelius concerto warms, melts, breaks, and mends your heart, rather than make you groan, "Not again." To his credit, Previn should pat himself on the back for winning a splendidly sympathetic accompaniment from the London Symphony, although this period in Previn's association with London was one that set off quite a few fireworks on its own account; that Chung was able to collaborate with the orchestra at this stage is to the benefit of posterity.

Review by Uncle Dave Lewis, Allmusic.com
"




Tracklist:

Pyotr Ilyich Tchaikovsky (1840-1893)
Violin Concerto in D major, Op.35
01. Tchaikovsky Violin Concerto in D major, Op.35 - I. Allegro moderato - Moderato (18:50)
02. Tchaikovsky Violin Concerto in D major, Op.35 - II. Canzonetta. Andante (06:24)
03. Tchaikovsky Violin Concerto in D major, Op.35 - III. Finale. Allegro vivacissimo (09:38)

Jean Sibelius (1865-1957)
Voilin Concerto in D minor, Op.47
04. Sibelius - I. Allegro moderato (15:37)
05. Sibelius Voilin Concerto in D minor, Op.47 - II. Adagio di molto (08:14)
06. Sibelius Voilin Concerto in D minor, Op.47 - III. Allegro, ma non tanto (07:38)


Exact Audio Copy V0.99 prebeta 5 from 4. May 2009

EAC extraction logfile from 19. January 2011, 17:19

Kyung-Wha Chung (violin), London Symphony Orchestra & Andre Previn / TchaikovskyĐŽESibelius Violin Concertos

Used drive : PLEXTOR CD-R PX-W8432T Adapter: 1 ID: 1

Read mode : Secure
Utilize accurate stream : Yes
Defeat audio cache : Yes
Make use of C2 pointers : No

Read offset correction

: 355
Overread into Lead-In and Lead-Out : No
Fill up missing offset samples with silence : Yes
Delete leading and trailing silent blocks : No
Null samples used in CRC calculations : Yes
Used interface
: Native Win32 interface for Win NT & 2000

Used output format : Internal WAV Routines
Sample format : 44.100 Hz; 16 Bit; Stereo

TOC of the extracted CD Track | Start | Length | Start sector | End sector
--1 | 0:00.00 | 18:50.18 | 0 | 84767 2 | 18:50.18 | 6:24.30 | 84768 | 113597 3 | 25:14.48 | 9:38.70 | 113598 | 157017 4 | 34:53.43 | 15:37.60 | 157018 | 227352 5 | 50:31.28 | 8:14.57 | 227353 | 264459 6 | 58:46.10 | 7:38.38 | 264460 | 298847

Range status and errors

Selected range Filename D:\Music\Decca\Kyung Wha Chung - Tchaikovsky, Sibelius Violin Concertos\CDImage.wav Peak level 98.9 %
Range quality 100.0 %
Copy CRC B3E192D4
Copy OK

No errors occurred


AccurateRip summary

Track 1 cannot be verified as accurate (confidence 4) [661726BA], AccurateRip returned [59DC9FA7]
Track 2 cannot be verified as accurate (confidence 4) [E21DA438], AccurateRip returned [9F2BD065]
Track 3 cannot be verified as accurate (confidence 4) [4B555C8D], AccurateRip returned [931747C5]
Track 4 cannot be verified as accurate (confidence 4) [F5C84F95], AccurateRip returned C27E2DD
Track 5 cannot be verified as accurate (confidence 4) [19343992], AccurateRip returned [FE59CF8A]
Track 6 cannot be verified as accurate (confidence 4) [868D7710], AccurateRip returned [936A2106]

No tracks could be verified as accurate
You may have a different pressing from the one(s) in the database

End of status report

[CUETools log; Date: 04.09.2015 13:24:53; Version: 2.1.4]
[CTDB TOCID: oUZ9ExSAezjVSIXrkkEQxK_mjNE-] found.
Track | CTDB Status
1 | (10/10) Accurately ripped
2 | (10/10) Accurately ripped
3 | (10/10) Accurately ripped
4 | ( 9/10) Accurately ripped
5 | ( 9/10) Accurately ripped
6 | ( 8/10) Accurately ripped
[AccurateRip ID: 00117cbd-005ad948-410f9006] found.
Track [ CRC | V2 ] Status
01 [661726ba|bdf9b8b3] (00+03/15) Accurately ripped
02 [e21da438|3e69201b] (00+03/15) Accurately ripped
03 [4b555c8d|5c3da158] (00+03/15) Accurately ripped
04 [f5c84f95|71a4a002] (00+04/16) Accurately ripped
05 [19343992|253175c8] (00+04/15) Accurately ripped
06 [868d7710|bd6aaeb2] (00+04/15) Accurately ripped
Offsetted by 118:
01 [59dc9fa7] (04/15) Accurately ripped
02 [9f2bd065] (04/15) Accurately ripped
03 [931747c5] (04/15) Accurately ripped
04 c27e2dd (04/16) Accurately ripped
05 [fe59cf8a] (04/15) Accurately ripped
06 [936a2106] (04/15) Accurately ripped
Offsetted by 447:
01 [83246a70] (03/15) Accurately ripped
02 756d08a (03/15) Accurately ripped
03 [70ac6121] (03/15) Accurately ripped
04 [1e67668c] (03/16) Accurately ripped
05 [86e331b4] (02/15) Accurately ripped
06 fd5aea5 (02/15) Accurately ripped

Track Peak [ CRC32 ] [W/O NULL] [ LOG ]
-- 98,9 3E192D4 [C9F56AC2] CRC32
01 93,6 [7A9C7851] [DDD9BF4D]
02 18,5 [C4EE7B88] [71FA8E16]
03 72,9 [70DAD34A] [095CD3A7]
04 98,9 [81776C00] [F6165ADB]
05 77,7 [937898CA] [3BFB5B82]
06 87,0 [94127569] [60AA01DF]

foobar2000 1.2 / Dynamic Range Meter 1.1.1
log date: 2015-09-04 13:31:09

Analyzed: Kyung-Wha Chung (violin), London Symphony Orchestra & Andre Previn / TchaikovskyĐŽESibelius Violin Concertos

DR Peak RMS Duration Track

DR15 -0.57 dB -22.48 dB 18:50 01-Tchaikovsky Violin Concerto in D major, Op.35 - I. Allegro moderato - Moderato
DR13 -14.63 dB -32.86 dB 6:24 02-Tchaikovsky Violin Concerto in D major, Op.35 - II. Canzonetta. Andante
DR15 -2.74 dB -24.59 dB 9:39 03-Tchaikovsky Violin Concerto in D major, Op.35 - III. Finale. Allegro vivacissimo
DR16 -0.09 dB -23.75 dB 15:38 04-Sibelius Voilin Concerto in D minor, Op.47 - I. Allegro moderato
DR15 -2.19 dB -24.97 dB 8:15 05-Sibelius Voilin Concerto in D minor, Op.47 - II. Adagio di molto
DR15 -1.21 dB -23.10 dB 7:39 06-Sibelius Voilin Concerto in D minor, Op.47 - III. Allegro, ma non tanto

Number of tracks: 6
Official DR value: DR15

Samplerate: 44100 Hz
Channels: 2
Bits per sample: 16
Bitrate: 594 kbps
Codec: FLAC

http://i72.fastpic.ru/big/2015/0906/6c/deca861ee690a63318d23ce7c845c76c.jpg

http://i71.fastpic.ru/big/2015/0906/3b/3b71500a7b4b2ce9b888e17dd3234d3b.jpg

All thanks to original releaser
Password: designol

DOWNLOAD LINKS:
Buy Premium To Support Me & Get Resumable Support & Max Speed


Links are Interchangeable - No Password - Single Extraction

Tchaikovsky - Violin Concerto in D major, Op.35; Sibelius - Voilin Concerto in D minor, Op.47 (1970) [Kyung-Wha Chung, Previn] Fast Download


Ad2

 
 
 
Dear visitor, you went to the site as an unregistered user. We encourage you to register or enter the site under your name.
 
   
 
 (Votes #: 0)