2013Zone For Latest Downloads

 
     
 
Legal Downloads » Music » James Blood Ulmer - Bad Blood In The City: The Piety Street Sessions (2007)
Menu
Home Applications
Games Movies
Music TV Shows
Torrents Graphics

Sitemap

RSS
 
Advanced Search
Last News
Site Info
Top Contributors:
  1    supper88 32766
  2    admin 32693
  3    Whisky 10080
  4    Shark_ 8911
  5    creativelivenew 8706
  6    whathesupa 2799
  7    candymypost 840
  8    hvnteam 629
  9    vuong87 3


Articles:
  This Hour: 0
  Today: 0
  This Month: 10
  All Time: 515561


Torrents:
  Today: 0
  Yesterday: 0
  All Time: 156684


Membership:
  Registered Today :0
  This Hour:0
  This Month:0
  Total:14
  Banned:1

{online}
{inform_torrent}
Friend:
We Recomend
Trend
Trend
Ad1

Search In Site

Music : James Blood Ulmer - Bad Blood In The City: The Piety Street Sessions (2007)
 
http://i66.fastpic.ru/big/2015/0906/7d/a015befe3dd0176db10e613636c07e7d.jpg

James Blood Ulmer - Bad Blood In The City: The Piety Street Sessions (2007)
EAC Rip | FLAC with CUE and log | scans | 308 mb
MP3 CBR 320kbps | RAR | 114 mb
Genre: blues, electric blues

Bad Blood In The City: The Piety Street Sessions is a 2007 album by James Blood Ulmer. He is helped by Vernon Reid (who produced the album), Leon Gruenbaum, and Charlie Burnham among many.
http://i66.fastpic.ru/big/2015/0906/7d/65788fa1ab7cf4a2f11a9e19895dc17d.jpg

1. Survivors Of The Hurricane (3:54)
2. Sad Days, Lonely Nights (6:00)
3. Katrina (3:47)
4. Let's Talk About Jesus (4:19)
5. This Land Is No One's Land (5:19)
6. Dead Presidents (4:40)
7. Commit A Crime (5:22)
8. Grinnin' In Your Face (4:37)
9. There Is Power In The Blues (2:28)
10. Backwater Blues (5:52)
11. Old Slave Master (2:36)

Exact Audio Copy V1.1 from 23. June 2015

EAC extraction logfile from 3. September 2015, 7:08

James Blood Ulmer / Bad Blood In The City

Used drive : TEAC DVD-ROM DV-28SW Adapter: 1 ID: 0

Read mode : Secure
Utilize accurate stream : Yes
Defeat audio cache : Yes
Make use of C2 pointers : No

Read offset correction

: 6
Overread into Lead-In and Lead-Out : No
Fill up missing offset samples with silence : Yes
Delete leading and trailing silent blocks : No
Null samples used in CRC calculations : Yes
Used interface
: Native Win32 interface for Win NT & 2000
Gap handling
: Appended to previous track

Used output format : Internal WAV Routines
Sample format : 44.100 Hz; 16 Bit; Stereo

TOC of the extracted CD Track | Start | Length | Start sector | End sector
--1 | 0:00.00 | 3:53.57 | 0 | 17531 2 | 3:53.57 | 5:59.45 | 17532 | 44501 3 | 9:53.27 | 3:46.45 | 44502 | 61496 4 | 13:39.72 | 4:19.15 | 61497 | 80936 5 | 17:59.12 | 5:18.53 | 80937 | 104839 6 | 23:17.65 | 4:40.25 | 104840 | 125864 7 | 27:58.15 | 5:21.52 | 125865 | 149991 8 | 33:19.67 | 4:36.40 | 149992 | 170731 9 | 37:56.32 | 2:28.18 | 170732 | 181849
10 | 40:24.50 | 5:52.00 | 181850 | 208249
11 | 46:16.50 | 2:36.17 | 208250 | 219966

Track 1 Filename C:\My Documents\My FLAC\James Blood Ulmer - Bad Blood In The City (2007)\01 - Survivors Of The Hurricane.wav Pre-gap length 0:00:02.00 Peak level 99.9 %
Extraction speed 2.8 X
Track quality 100.0 %
Test CRC 9178D4E9
Copy CRC 9178D4E9
Accurately ripped (confidence 7) [6C36D245] (AR v2)
Copy OK

Track 2 Filename C:\My Documents\My FLAC\James Blood Ulmer - Bad Blood In The City (2007)\02 - Sad Days, Lonely Nights.wav Peak level 100.0 %
Extraction speed 3.3 X
Track quality 100.0 %
Test CRC C11A6CFC
Copy CRC C11A6CFC
Accurately ripped (confidence 7) [FE9D07B6] (AR v2)
Copy OK

Track 3 Filename C:\My Documents\My FLAC\James Blood Ulmer - Bad Blood In The City (2007)\03 - Katrina.wav Peak level 97.7 %
Extraction speed 3.5 X
Track quality 100.0 %
Test CRC 9772B2A1
Copy CRC 9772B2A1
Accurately ripped (confidence 7) [20A62FA9] (AR v2)
Copy OK

Track 4 Filename C:\My Documents\My FLAC\James Blood Ulmer - Bad Blood In The City (2007)\04 - Let's Talk About Jesus.wav Peak level 94.4 %
Extraction speed 3.8 X
Track quality 100.0 %
Test CRC 6030E88D
Copy CRC 6030E88D
Accurately ripped (confidence 7) [7448E2F9] (AR v2)
Copy OK

Track 5 Filename C:\My Documents\My FLAC\James Blood Ulmer - Bad Blood In The City (2007)\05 - This Land Is Nobody's Land.wav Peak level 98.5 %
Extraction speed 3.7 X
Track quality 99.9 %
Test CRC 8DAABDFD
Copy CRC 8DAABDFD
Accurately ripped (confidence 7) [DE614142] (AR v2)
Copy OK

Track 6 Filename C:\My Documents\My FLAC\James Blood Ulmer - Bad Blood In The City (2007)\06 - Dead Presidents.wav Pre-gap length 0:00:00.70 Peak level 97.7 %
Extraction speed 4.4 X
Track quality 100.0 %
Test CRC 15F061A4
Copy CRC 15F061A4
Accurately ripped (confidence 7) [A07CE616] (AR v2)
Copy OK

Track 7 Filename C:\My Documents\My FLAC\James Blood Ulmer - Bad Blood In The City (2007)\07 - Commit A Crime.wav Peak level 99.6 %
Extraction speed 4.1 X
Track quality 99.9 %
Test CRC 70BDAD53
Copy CRC 70BDAD53
Accurately ripped (confidence 6) [0385CE9C] (AR v2)
Copy OK

Track 8 Filename C:\My Documents\My FLAC\James Blood Ulmer - Bad Blood In The City (2007)\08 - Grinnin' In Your Face.wav Peak level 97.3 %
Extraction speed 4.2 X
Track quality 99.9 %
Test CRC CECA7314
Copy CRC CECA7314
Accurately ripped (confidence 7) [D7434A0A] (AR v2)
Copy OK

Track 9 Filename C:\My Documents\My FLAC\James Blood Ulmer - Bad Blood In The City (2007)\09 - There Is Power In The Blues.wav Pre-gap length 0:00:00.37 Peak level 97.6 %
Extraction speed 4.5 X
Track quality 100.0 %
Test CRC F264074C
Copy CRC F264074C
Accurately ripped (confidence 7) [DD072A61] (AR v2)
Copy OK

Track 10 Filename C:\My Documents\My FLAC\James Blood Ulmer - Bad Blood In The City (2007)\10 - Backwater Blues.wav Peak level 98.8 %
Extraction speed 5.3 X
Track quality 100.0 %
Test CRC 2104AE22
Copy CRC 2104AE22
Accurately ripped (confidence 7) [06017E84] (AR v2)
Copy OK

Track 11 Filename C:\My Documents\My FLAC\James Blood Ulmer - Bad Blood In The City (2007)\11 - Old Slave Master.wav Pre-gap length 0:00:00.70 Peak level 100.0 %
Extraction speed 4.8 X
Track quality 100.0 %
Test CRC 2D1357A4
Copy CRC 2D1357A4
Accurately ripped (confidence 7) [55C7BF9A] (AR v2)
Copy OK

All tracks accurately ripped

No errors occurred

End of status report

- CUETools DB Plugin V2.1.6

[CTDB TOCID: fuduOhYZ5wwaORVLnTBzmVoVp.k-] found
Submit result: fuduOhYZ5wwaORVLnTBzmVoVp.k- has been confirmed
Track | CTDB Status
1 | (11/11) Accurately ripped
2 | (11/11) Accurately ripped
3 | (11/11) Accurately ripped
4 | (11/11) Accurately ripped
5 | (11/11) Accurately ripped
6 | (11/11) Accurately ripped
7 | (11/11) Accurately ripped
8 | (11/11) Accurately ripped
9 | (11/11) Accurately ripped
10 | (11/11) Accurately ripped
11 | (11/11) Accurately ripped

http://i72.fastpic.ru/big/2015/0906/97/fcbd57c711f4abbc7eb131ba42fbba97.jpg

DOWNLOAD LINKS:
Buy Premium To Support Me & Get Resumable Support & Max Speed


Links are Interchangeable - No Password - Single Extraction

James Blood Ulmer - Bad Blood In The City: The Piety Street Sessions (2007) Fast Download


Ad2

 
 
 
Dear visitor, you went to the site as an unregistered user. We encourage you to register or enter the site under your name.
 
   
 
 (Votes #: 1)