2013Zone For Latest Downloads

 
     
 
Legal Downloads » Music » Roberto Negro Trio invite Christophe Monniot - Luna Di Wuxi - Kimono (2015) [2CD] {Tricollectif}
Menu
Home Applications
Games Movies
Music TV Shows
Torrents Graphics

Sitemap

RSS
 
Advanced Search
Last News
Site Info
Top Contributors:
  1    supper88 32766
  2    admin 32711
  3    Whisky 10080
  4    Shark_ 8911
  5    creativelivenew 8706
  6    whathesupa 2799
  7    candymypost 840
  8    hvnteam 629
  9    vuong87 3


Articles:
  This Hour: 0
  Today: 0
  This Month: 0
  All Time: 515501


Torrents:
  Today: 0
  Yesterday: 0
  All Time: 156676


Membership:
  Registered Today :0
  This Hour:0
  This Month:0
  Total:14
  Banned:1

{online}
{inform_torrent}
Friend:
Full Download Scripts
Torrent Download
Trend
Trend

Search In Site

Music : Roberto Negro Trio invite Christophe Monniot - Luna Di Wuxi - Kimono (2015) [2CD] {Tricollectif}
 

http://i69.fastpic.ru/big/2015/0906/e1/789f009610fda8a4b527edc6037313e1.jpg
Roberto Negro Trio invite Christophe Monniot - Luna Di Wuxi - Kimono (2015) [2CD] {Tricollectif}
EAC rip (secure mode) | FLAC (tracks)+CUE+LOG -> 573 Mb | MP3 @320 -> 241 Mb
Full Artwork @ 300 dpi (png) -> 28 Mb | 5% repair rar
© 2015 Tricollectif | Trico 06
Jazz / Contemporary Jazz / Modern Creative

"Un double CD qui aura attendu - et nous avec - un certain temps avant de sortir des boîtes et autres étuis où il restait caché pour de bonnes raisons. L'actualité de la Loving Suite pour Birdy So a primé sur cet enregistrement qui date de mars et juillet 2012 et résulte d'une part d'un concert à Lyon (le live avec Christophe Monniot), et d'autre part de deux séances en trio. L'actualité fait bien les choses : au sortir de trois soirées « Tricot » à Orléans, dont l'une a permis de découvrir le grand orchestre du Tricot jouant une pièce de Monniot intitulée « Jéricho Sinfonia » (ou comment à la fois évoquer un mur en musique et le faire tomber), on est pénétré de l'idée que les jeunes gens et jeunes filles du Tricollectif savent aller chercher les collègues des autres générations (tels que Louis Sclavis par exemple) pour tisser (évidemment) avec eux des liens et élaborer des œuvres."

http://i67.fastpic.ru/big/2015/0906/42/18049f12866c49f5ae4c187a50d8f242.jpg

""the high aerobatics, fluidity of each moment this first meeting is simply tempting necessarily She announces further time; it also helps to be confirmed certainty. Roberto Negro is one of the most interesting musicians Yet this golden generation ... "-

FRANPI Sunship

"The saxophone is throughout this epic concert a sort of indicative of the firepower of the original trio. The collective game goes away, stretches, swells under the repeated assaults of saxophonist and pianist."
Oliver Acosta - JAZZ MOZAIC

**** Jazzmag "a sense of drama consumed, a happy and percussive rhythmic approach, and a taste for extreme dynamic contrasts. Mordant and invigorating exchange where the four musicians seem to give heart to joy."
Pascal Rozat - JAZZ MAGAZINE

ELU CITIZEN JAZZ "beauty, insistence and runaway."
Philippe Méziat - CITIZEN JAZZ

"Solar Music, full and inventive, confident even without ostentation, mix between research and intuition"
Bernard Cassat - OJAZZ"


Roberto Negro INFO

Personnel:
Roberto Negro : piano
Christophe Monniot : saxophone
Adrien Chennebault : drums
Jérôme Arrighi : bass

tracklist:
CD1 - Luna Di Wuxi

01 - Grace
02 - Ogni cosa e illuminata
03 - deja vu
04 - Comme un libro d'Erri de Luca
05 - Billy the begue
06 - Il giorno della civetta
07 - Miss J
08 - I wish i could be a melody

http://i70.fastpic.ru/big/2015/0906/b3/5081cb2e522b9f6a6140f599c97642b3.jpg


CD2 - Kimono
01 - Intro
02 - La buona stella
03 - No plane no train
04 - Objets lumineux
05 - Ph
06 - Blanc casse

http://i66.fastpic.ru/big/2015/0906/b1/4903289ca2c522bbf6fab3e9de2961b1.jpg



Exact Audio Copy V1.1 from 23. June 2015

EAC extraction logfile from 3. September 2015, 9:03

Roberto Negro Trio invite Christophe Monniot / #1 Luna Di Wuxi

Used drive : ATAPI iHBS112 2 Adapter: 1 ID: 0

Read mode : Secure
Utilize accurate stream : Yes
Defeat audio cache : Yes
Make use of C2 pointers : No

Read offset correction

: 6
Overread into Lead-In and Lead-Out : No
Fill up missing offset samples with silence : Yes
Delete leading and trailing silent blocks : No
Null samples used in CRC calculations : Yes
Used interface
: Native Win32 interface for Win NT & 2000
Gap handling
: Appended to previous track

Used output format : User Defined Encoder
Selected bitrate : 1024 kBit/s
Quality : High
Add ID3 tag : No
Command line compressor : C:\Program Files\Exact Audio Copy\Flac\flac.exe
Additional command line options : -8 -V -T "ARTIST=%artist%" -T "TITLE=%title%" -T "ALBUM=%albumtitle%" -T "DATE=%year%" -T "TRACKNUMBER=%tracknr%" -T "TOTALTRACKS=%numtracks%" -T "GENRE=%genre%" -T "ALBUMARTIST=%albumartist%" -T "ALBUM ARTIST=%albumartist%" -T "COMPOSER=%composer%" -T "PERFORMER=%albuminterpret%" -T "DISCNUMBER=%cdnumber%" -T "TOTALDISCS=%totalcds%" -T "COMMENT=EAC Secure Mode, Test & Copy, AccurateRip, FLAC -8" %source%

TOC of the extracted CD Track | Start | Length | Start sector | End sector
--1 | 0:00.00 | 8:22.04 | 0 | 37653 2 | 8:22.04 | 5:48.45 | 37654 | 63798 3 | 14:10.49 | 6:37.41 | 63799 | 93614 4 | 20:48.15 | 7:15.40 | 93615 | 126279 5 | 28:03.55 | 1:02.06 | 126280 | 130935 6 | 29:05.61 | 9:06.40 | 130936 | 171925 7 | 38:12.26 | 1:18.73 | 171926 | 177848 8 | 39:31.24 | 4:28.69 | 177849 | 198017

Track 1 Filename P:\DL\Roberto Negro Trio invite Christophe Monniot - #1 Luna Di Wuxi (2015) [FLAC]\01 - Grace.wav Pre-gap length 0:00:02.00 Peak level 99.2 %
Extraction speed 5.6 X
Track quality 100.0 %
Test CRC FE47EB77
Copy CRC FE47EB77
Track not present in AccurateRip database
Copy OK

Track 2 Filename P:\DL\Roberto Negro Trio invite Christophe Monniot - #1 Luna Di Wuxi (2015) [FLAC]\02 - Ogni cosa e illuminata.wav Peak level 98.9 %
Extraction speed 5.5 X
Track quality 99.9 %
Test CRC F5E6482E
Copy CRC F5E6482E
Track not present in AccurateRip database
Copy OK

Track 3 Filename P:\DL\Roberto Negro Trio invite Christophe Monniot - #1 Luna Di Wuxi (2015) [FLAC]\03 - deja vu.wav Peak level 98.8 %
Extraction speed 7.0 X
Track quality 100.0 %
Test CRC B7CB4706
Copy CRC B7CB4706
Track not present in AccurateRip database
Copy OK

Track 4 Filename P:\DL\Roberto Negro Trio invite Christophe Monniot - #1 Luna Di Wuxi (2015) [FLAC]\04 - Comme un libro d'Erri de Luca.wav Peak level 99.7 %
Extraction speed 7.7 X
Track quality 100.0 %
Test CRC 2D54B260
Copy CRC 2D54B260
Track not present in AccurateRip database
Copy OK

Track 5 Filename P:\DL\Roberto Negro Trio invite Christophe Monniot - #1 Luna Di Wuxi (2015) [FLAC]\05 - Billy the begue.wav Peak level 98.8 %
Extraction speed 3.6 X
Track quality 99.8 %
Test CRC AF21FD4F
Copy CRC AF21FD4F
Track not present in AccurateRip database
Copy OK

Track 6 Filename P:\DL\Roberto Negro Trio invite Christophe Monniot - #1 Luna Di Wuxi (2015) [FLAC]\06 - Il giorno della civetta.wav Peak level 98.8 %
Extraction speed 8.4 X
Track quality 100.0 %
Test CRC B2106F93
Copy CRC B2106F93
Track not present in AccurateRip database
Copy OK

Track 7 Filename P:\DL\Roberto Negro Trio invite Christophe Monniot - #1 Luna Di Wuxi (2015) [FLAC]\07 - Miss J.wav Peak level 98.7 %
Extraction speed 6.4 X
Track quality 100.0 %
Test CRC 3E1DBBB7
Copy CRC 3E1DBBB7
Track not present in AccurateRip database
Copy OK

Track 8 Filename P:\DL\Roberto Negro Trio invite Christophe Monniot - #1 Luna Di Wuxi (2015) [FLAC]\08 - I wish i could be a melody.wav Peak level 98.9 %
Extraction speed 7.1 X
Track quality 99.9 %
Test CRC 417C5FCA
Copy CRC 417C5FCA
Track not present in AccurateRip database
Copy OK

None of the tracks are present in the AccurateRip database

No errors occurred

End of status report

- CUETools DB Plugin V2.1.6

[CTDB TOCID: k2KNKUVIVvp3S00jDUxdAbFAbKY-] disk not present in database
Submit result:

==== Log checksum 37A7F60CABE6366CB7AD9C12A00A20C6DA608DC19D97A15FC15A7A42A690B840 ====

Exact Audio Copy V1.1 from 23. June 2015

EAC extraction logfile from 3. September 2015, 9:51

Roberto Negro Trio invite Christophe Monniot / #2 Kimono

Used drive : ATAPI iHBS112 2 Adapter: 1 ID: 0

Read mode : Secure
Utilize accurate stream : Yes
Defeat audio cache : Yes
Make use of C2 pointers : No

Read offset correction

: 6
Overread into Lead-In and Lead-Out : No
Fill up missing offset samples with silence : Yes
Delete leading and trailing silent blocks : No
Null samples used in CRC calculations : Yes
Used interface
: Native Win32 interface for Win NT & 2000
Gap handling
: Appended to previous track

Used output format : User Defined Encoder
Selected bitrate : 1024 kBit/s
Quality : High
Add ID3 tag : No
Command line compressor : C:\Program Files\Exact Audio Copy\Flac\flac.exe
Additional command line options : -8 -V -T "ARTIST=%artist%" -T "TITLE=%title%" -T "ALBUM=%albumtitle%" -T "DATE=%year%" -T "TRACKNUMBER=%tracknr%" -T "TOTALTRACKS=%numtracks%" -T "GENRE=%genre%" -T "ALBUMARTIST=%albumartist%" -T "ALBUM ARTIST=%albumartist%" -T "COMPOSER=%composer%" -T "PERFORMER=%albuminterpret%" -T "DISCNUMBER=%cdnumber%" -T "TOTALDISCS=%totalcds%" -T "COMMENT=EAC Secure Mode, Test & Copy, AccurateRip, FLAC -8" %source%

TOC of the extracted CD Track | Start | Length | Start sector | End sector
--1 | 0:00.00 | 3:27.03 | 0 | 15527 2 | 3:27.03 | 7:27.02 | 15528 | 49054 3 | 10:54.05 | 9:32.21 | 49055 | 91975 4 | 20:26.26 | 12:38.45 | 91976 | 148870 5 | 33:04.71 | 5:18.34 | 148871 | 172754 6 | 38:23.30 | 9:51.17 | 172755 | 217096

Track 1 Filename P:\DL\Roberto Negro Trio invite Christophe Monniot - #2 Kimono (2015) [FLAC]\01 - Intro.wav Pre-gap length 0:00:02.00 Peak level 98.8 %
Extraction speed 4.8 X
Track quality 100.0 %
Test CRC BD437701
Copy CRC BD437701
Track not present in AccurateRip database
Copy OK

Track 2 Filename P:\DL\Roberto Negro Trio invite Christophe Monniot - #2 Kimono (2015) [FLAC]\02 - La buona stella.wav Peak level 99.0 %
Extraction speed 6.0 X
Track quality 100.0 %
Test CRC 86071593
Copy CRC 86071593
Track not present in AccurateRip database
Copy OK

Track 3 Filename P:\DL\Roberto Negro Trio invite Christophe Monniot - #2 Kimono (2015) [FLAC]\03 - No plane no train.wav Peak level 99.0 %
Extraction speed 7.1 X
Track quality 100.0 %
Test CRC D3025266
Copy CRC D3025266
Track not present in AccurateRip database
Copy OK

Track 4 Filename P:\DL\Roberto Negro Trio invite Christophe Monniot - #2 Kimono (2015) [FLAC]\04 - Objets lumineux.wav Peak level 99.3 %
Extraction speed 7.8 X
Track quality 99.9 %
Test CRC 30978ECD
Copy CRC 30978ECD
Track not present in AccurateRip database
Copy OK

Track 5 Filename P:\DL\Roberto Negro Trio invite Christophe Monniot - #2 Kimono (2015) [FLAC]\05 - Ph.wav Peak level 98.9 %
Extraction speed 8.5 X
Track quality 100.0 %
Test CRC 8AED30FB
Copy CRC 8AED30FB
Track not present in AccurateRip database
Copy OK

Track 6 Filename P:\DL\Roberto Negro Trio invite Christophe Monniot - #2 Kimono (2015) [FLAC]\06 - Blanc casse.wav Peak level 99.2 %
Extraction speed 9.5 X
Track quality 100.0 %
Test CRC 9D78A8FB
Copy CRC 9D78A8FB
Track not present in AccurateRip database
Copy OK

None of the tracks are present in the AccurateRip database

No errors occurred

End of status report

- CUETools DB Plugin V2.1.6

[CTDB TOCID: COzM75qdgyGYl5T5mBWpyaqS3Wc-] disk not present in database
Submit result:

==== Log checksum C300E54CCD9FC5CAFFEF202897C1583CE2FC2DB18AFEFDEE42D180DF14DADCE2 ====

http://i70.fastpic.ru/big/2015/0906/01/21043bfbcf0e50de2da47c673bea0e01.jpg


thanks to dtromp...
DOWNLOAD LINKS:
Buy Premium To Support Me & Get Resumable Support & Max Speed


Links are Interchangeable - No Password - Single Extraction

Roberto Negro Trio invite Christophe Monniot - Luna Di Wuxi - Kimono (2015) [2CD] {Tricollectif} Fast Download



 
 
 
Dear visitor, you went to the site as an unregistered user. We encourage you to register or enter the site under your name.
 
   
 
 (Votes #: 0)