2013Zone For Latest Downloads

 
     
 
Legal Downloads » Music » Herbert von Karajan Memorial Concert (2009) [Blu-ray]
Menu
Home Applications
Games Movies
Music TV Shows
Torrents Graphics

Sitemap

RSS
 
Advanced Search
Last News
Site Info
Top Contributors:
  1    supper88 32766
  2    admin 32693
  3    Whisky 10080
  4    Shark_ 8911
  5    creativelivenew 8706
  6    whathesupa 2799
  7    candymypost 840
  8    hvnteam 629
  9    vuong87 3


Articles:
  This Hour: 0
  Today: 0
  This Month: 0
  All Time: 515561


Torrents:
  Today: 0
  Yesterday: 0
  All Time: 156684


Membership:
  Registered Today :0
  This Hour:0
  This Month:0
  Total:14
  Banned:1

{online}
{inform_torrent}
Friend:
We Recomend
Trend
Trend
Ad1

Search In Site

Music : Herbert von Karajan Memorial Concert (2009) [Blu-ray]
 
http://i71.fastpic.ru/big/2015/0908/d3/06505bbdc7a02146039fa3266cc1a9d3.jpg

Herbert von Karajan Memorial Concert (2009)
Blu-ray | BDMV | 1920x1080i, MPEG-4 AVC, 29.97 fps, ~ 16.5 Mbps | 22.92 GB
Audio: LPCM 5.1, 48 kHz, 24 bit, 6.9 Mbps; LPCM 2.0, 48 kHz, 24 bit, 2.3 Mbps | Subtitles: English, French, German, Spanish
Classical | Length: 01:52:10 | Nitroflare/Uploadable

"Herbert von Karajan is considered by many as the greatest conductor of the 20th century. To this day, he also remains the world's top-selling classical recording artist. The Maestro's legacy, however, has often been a subject of heated discussions fueled by his highly publicized affiliation with the Nazi Party during WW2. Nevertheless, many of his recordings with the Vienna Philharmonic, and especially the Berlin Philharmonic, which he led for thirty-five years (1954-1989), are still regarded as the best in the classical repertoire.
On January 28th, 2008 the Berlin Philharmonic celebrated the 100th anniversary of Herbert von Karajan's birth with an impressive concert at Wiener Musikverein, Vienna, Austria. Led by Japanese conductor Seiji Ozawa, the Berlin Philharmonic performed Beethoven's Concerto for Violin and Orchestra in D major (with guest soloist Anne-Sophie Mutter), Bach's Partita for Solo Violin No. 2 in D minor: Sarabande and Tchaikovsky's Symphony No. 6 in B minor "Pathetique".
Concerto for Violin and Orchestra in D major - Violinist Anne-Sophie Mutter and the Berlin Philharmonic deliver an inspiring performance of Beethoven's timeless masterpiece. Maestro Ozawa's leadership is certainly felt throughout the concerto, but it is Anne-Sophie Mutter's flawless technique that impresses. The Larghetto in particular is incredibly moving - the "dialog" between the violin and the bassoon in the opening bars is most beautiful.
Sarabande - Yet another highly impressive performance by violinist Anne-Sophie Mutter! Her treatment of Bach's work is gentle and notably lyrical. The sense of calmness the lonely violin exudes is fantastic.
Symphony No. 6 in B minor "Pathetique - Without a doubt, this is the real treat in this memorable concert (Maestro Ozawa conducted "Pathetique" for Orchestre de Paris very early in his career). The Berlin Philharmonic breeds new life into this epic work regarded by many as Tchaikovsky's masterpiece. Pain, joy, anger and longing are exceptionally easy to detect in practically every note the musicians produce. Superb!"


http://i69.fastpic.ru/big/2015/0908/41/f4c85f92c46a94a714259c5d8c469c41.jpg


Tracklist

01. Opening

Beethoven
Violin Concerto in D major
02. Allegro ma non troppo
03. Larghetto
04. Rondo. Allegro

Bach
Partita for Solo Violin No.2 in D minor
05. Sarabande

Tchaikovsky
Symphony No. 6 in B minor "Pathetique"
06. Adagio - Allegro non troppo
07. Allegro con grazia
08. Allegro molto vivace
09. Finale. Adagio lamentoso - Andante

Credits

Supplements
Anne-Sophie Mutter And Seiji Ozawa On Herbert Von Karajan Including Film Clips From Karajan's Career

Disc Title: KARAJAN_MEMORIAL_CONCERT_2008
Disc Size: 24,612,361,668 bytes
Protection: AACS
BD-Java: No
Extras: 50Hz Content
BDInfo: 0.5.8

Notes:

BDINFO HOME:
Cinema Squid
http://www.cinemasquid.com/blu-ray/tools/bdinfo

INCLUDES FORUMS REPORT FOR:
AVS Forum Blu-ray Audio and Video Specifications Thread
http://www.avsforum.com/avs-vb/showthread.php?t=1155731

WARNING: Report is incomplete because: Scan has not been run.

********************
PLAYLIST: 00000.MPLS
********************
Total Video Title Codec Length Movie Size Disc Size Bitrate Bitrate Main Audio Track Secondary Audio Track--
- -- -- - - -00000.MPLS AVC 1:52:32 0 24,612,361,668 0.00 0.00 LPCM 2.0 2304Kbps (48kHz/24-bit) LPCM 5.1 6912Kbps (48kHz/24-bit)


DISC INFO:Disc Title: KARAJAN_MEMORIAL_CONCERT_2008Disc Size: 24,612,361,668 bytesProtection: AACSBD-Java: NoExtras: 50Hz ContentBDInfo: 0.5.8PLAYLIST REPORT:Name: 00000.MPLSLength: 1:52:32.412 (h:m:s.ms)Size: 0 bytesTotal Bitrate: 0.00 MbpsVIDEO:Codec Bitrate Description -- - -- MPEG-4 AVC Video 0 kbps 1080i / 29.970 fps / 16:9 / High Profile 4.1AUDIO:Codec Language Bitrate Description -- -- - -- LPCM Audio

German 2304 kbps 2.0 / 48 kHz / 2304 kbps / 24-bitLPCM Audio

German 6912 kbps 5.1 / 48 kHz / 6912 kbps / 24-bitFILES:Name Time In Length Size Total Bitrate - - - - 00004.M2TS 0:00:00.000 1:52:10.724 0 0 00003.M2TS 1:52:10.724 0:00:14.047 0 0 00000.M2TS 1:52:24.771 0:00:07.307 0 0 00002.M2TS 1:52:32.078 0:00:00.333 0 0 CHAPTERS:Number Time In Length Avg Video Rate Max 1-Sec Rate Max 1-Sec Time Max 5-Sec Rate Max 5-Sec Time Max 10Sec Rate Max 10Sec Time Avg Frame Size Max Frame Size Max Frame Time - -- -- -- -- -- -- -- -- -- -- 1 0:00:00.000 0:01:30.690 0 kbps 0 kbps 00:00:00.000 0 kbps 00:00:00.000 0 kbps 00:00:00.000 0 bytes 0 bytes 00:00:00.000 2 0:01:30.690 0:27:30.749 0 kbps 0 kbps 00:00:00.000 0 kbps 00:00:00.000 0 kbps 00:00:00.000 0 bytes 0 bytes 00:00:00.000 3 0:29:01.439 0:11:00.793 0 kbps 0 kbps 00:00:00.000 0 kbps 00:00:00.000 0 kbps 00:00:00.000 0 bytes 0 bytes 00:00:00.000 4 0:40:02.233 0:12:31.083 0 kbps 0 kbps 00:00:00.000 0 kbps 00:00:00.000 0 kbps 00:00:00.000 0 bytes 0 bytes 00:00:00.000 5 0:52:33.316 0:06:57.617 0 kbps 0 kbps 00:00:00.000 0 kbps 00:00:00.000 0 kbps 00:00:00.000 0 bytes 0 bytes 00:00:00.000 6 0:59:30.934 0:20:37.636 0 kbps 0 kbps 00:00:00.000 0 kbps 00:00:00.000 0 kbps 00:00:00.000 0 bytes 0 bytes 00:00:00.000 7 1:20:08.570 0:08:40.586 0 kbps 0 kbps 00:00:00.000 0 kbps 00:00:00.000 0 kbps 00:00:00.000 0 bytes 0 bytes 00:00:00.000 8 1:28:49.157 0:08:59.839 0 kbps 0 kbps 00:00:00.000 0 kbps 00:00:00.000 0 kbps 00:00:00.000 0 bytes 0 bytes 00:00:00.000 9 1:37:48.996 0:13:30.643 0 kbps 0 kbps 00:00:00.000 0 kbps 00:00:00.000 0 kbps 00:00:00.000 0 bytes 0 bytes 00:00:00.000 10 1:51:19.639 0:01:12.772 0 kbps 0 kbps 00:00:00.000 0 kbps 00:00:00.000 0 kbps 00:00:00.000 0 bytes 0 bytes 00:00:00.000 STREAM DIAGNOSTICS:File PID Type Codec Language Seconds Bitrate Bytes Packets - - -- -- -- -- - -- 00004.M2TS 4113 (0x1011) 0x1B AVC
0

0

0 0 00004.M2TS 4352 (0x1100) 0x80 LPCM deu (German) 0

0

0 0 00004.M2TS 4353 (0x1101) 0x80 LPCM deu (German) 0

0

0 0 00003.M2TS 4113 (0x1011) 0x1B AVC
0

0

0 0 00000.M2TS 4113 (0x1011) 0x1B AVC
0

0

0 0 00002.M2TS 4113 (0x1011) 0x1B AVC
0

0

0 0


QUICK SUMMARY:

Disc Title: KARAJAN_MEMORIAL_CONCERT_2008
Disc Size: 24,612,361,668 bytes
Protection: AACS
BD-Java: No
Playlist: 00000.MPLS
Size: 0 bytes
Length: 1:52:32.412
Total Bitrate: 0.00 Mbps
Video: MPEG-4 AVC Video / 0 kbps / 1080i / 29.970 fps / 16:9 / High Profile 4.1
Audio: German / LPCM Audio / 2.0 / 48 kHz / 2304 kbps / 24-bit
Audio: German / LPCM Audio / 5.1 / 48 kHz / 6912 kbps / 24-bit

********************
PLAYLIST: 00003.MPLS
********************
Total Video Title Codec Length Movie Size Disc Size Bitrate Bitrate Main Audio Track Secondary Audio Track--
- -- -- - - -00003.MPLS AVC 0:02:06 0 24,612,361,668 0.00 0.00 DD AC3 2.0 192Kbps


DISC INFO:Disc Title: KARAJAN_MEMORIAL_CONCERT_2008Disc Size: 24,612,361,668 bytesProtection: AACSBD-Java: NoExtras: 50Hz ContentBDInfo: 0.5.8PLAYLIST REPORT:Name: 00003.MPLSLength: 0:02:06.459 (h:m:s.ms)Size: 0 bytesTotal Bitrate: 0.00 MbpsVIDEO:Codec Bitrate Description -- - -- MPEG-4 AVC Video 0 kbps 1080i / 29.970 fps / 16:9 / High Profile 4.1AUDIO:Codec Language Bitrate Description -- -- - -- Dolby Digital Audio German 192 kbps 2.0 / 48 kHz / 192 kbpsDolby Digital Audio German 192 kbps 2.0 / 48 kHz / 192 kbpsFILES:Name Time In Length Size Total Bitrate - - - - 00005.M2TS 0:00:00.000 0:02:06.125 0 0 00002.M2TS 0:02:06.125 0:00:00.333 0 0 CHAPTERS:Number Time In Length Avg Video Rate Max 1-Sec Rate Max 1-Sec Time Max 5-Sec Rate Max 5-Sec Time Max 10Sec Rate Max 10Sec Time Avg Frame Size Max Frame Size Max Frame Time - -- -- -- -- -- -- -- -- -- -- 1 0:00:00.000 0:02:06.459 0 kbps 0 kbps 00:00:00.000 0 kbps 00:00:00.000 0 kbps 00:00:00.000 0 bytes 0 bytes 00:00:00.000 STREAM DIAGNOSTICS:File PID Type Codec Language Seconds Bitrate Bytes Packets - - -- -- -- -- - -- 00005.M2TS 4113 (0x1011) 0x1B AVC
0

0

0 0 00005.M2TS 4352 (0x1100) 0x81 AC3 deu (German) 0

0

0 0 00005.M2TS 4353 (0x1101) 0x81 AC3 deu (German) 0

0

0 0 00002.M2TS 4113 (0x1011) 0x1B AVC
0

0

0 0


QUICK SUMMARY:

Disc Title: KARAJAN_MEMORIAL_CONCERT_2008
Disc Size: 24,612,361,668 bytes
Protection: AACS
BD-Java: No
Playlist: 00003.MPLS
Size: 0 bytes
Length: 0:02:06.459
Total Bitrate: 0.00 Mbps
Video: MPEG-4 AVC Video / 0 kbps / 1080i / 29.970 fps / 16:9 / High Profile 4.1
Audio: German / Dolby Digital Audio / 2.0 / 48 kHz / 192 kbps
Audio: German / Dolby Digital Audio / 2.0 / 48 kHz / 192 kbps

********************
PLAYLIST: 00006.MPLS
********************
Total Video Title Codec Length Movie Size Disc Size Bitrate Bitrate Main Audio Track Secondary Audio Track--
- -- -- - - -00006.MPLS MPEG-2 0:09:05 0 24,612,361,668 0.00 0.00 DD AC3 2.0 192Kbps


DISC INFO:Disc Title: KARAJAN_MEMORIAL_CONCERT_2008Disc Size: 24,612,361,668 bytesProtection: AACSBD-Java: NoExtras: 50Hz ContentBDInfo: 0.5.8PLAYLIST REPORT:Name: 00006.MPLSLength: 0:09:05.400 (h:m:s.ms)Size: 0 bytesTotal Bitrate: 0.00 MbpsVIDEO:Codec Bitrate Description -- - -- MPEG-2 Video 0 kbps 576i / 25 fps / 16:9AUDIO:Codec Language Bitrate Description -- -- - -- Dolby Digital Audio German 192 kbps 2.0 / 48 kHz / 192 kbpsDolby Digital Audio German 192 kbps 2.0 / 48 kHz / 192 kbpsSUBTITLES:Codec Language Bitrate Description -- -- - -- Presentation Graphics English 0.000 kbps

Presentation Graphics German 0.000 kbps

Presentation Graphics French 0.000 kbps

Presentation Graphics Spanish 0.000 kbps

FILES:Name Time In Length Size Total Bitrate - - - - 00008.M2TS 0:00:00.000 0:09:05.000 0 0 00011.M2TS 0:09:05.000 0:00:00.399 0 0 CHAPTERS:Number Time In Length Avg Video Rate Max 1-Sec Rate Max 1-Sec Time Max 5-Sec Rate Max 5-Sec Time Max 10Sec Rate Max 10Sec Time Avg Frame Size Max Frame Size Max Frame Time - -- -- -- -- -- -- -- -- -- -- 1 0:00:00.000 0:09:05.400 0 kbps 0 kbps 00:00:00.000 0 kbps 00:00:00.000 0 kbps 00:00:00.000 0 bytes 0 bytes 00:00:00.000 STREAM DIAGNOSTICS:File PID Type Codec Language Seconds Bitrate Bytes Packets - - -- -- -- -- - -- 00008.M2TS 4113 (0x1011) 0x02 MPEG-2
0

0

0 0 00008.M2TS 4352 (0x1100) 0x81 AC3 deu (German) 0

0

0 0 00008.M2TS 4353 (0x1101) 0x81 AC3 deu (German) 0

0

0 0 00008.M2TS 4608 (0x1200) 0x90 PGS eng (English) 0

0

0 0 00008.M2TS 4609 (0x1201) 0x90 PGS deu (German) 0

0

0 0 00008.M2TS 4610 (0x1202) 0x90 PGS fra (French) 0

0

0 0 00008.M2TS 4611 (0x1203) 0x90 PGS spa (Spanish) 0

0

0 0 00011.M2TS 4113 (0x1011) 0x02 MPEG-2
0

0

0 0


QUICK SUMMARY:

Disc Title: KARAJAN_MEMORIAL_CONCERT_2008
Disc Size: 24,612,361,668 bytes
Protection: AACS
BD-Java: No
Playlist: 00006.MPLS
Size: 0 bytes
Length: 0:09:05.400
Total Bitrate: 0.00 Mbps
Video: MPEG-2 Video / 0 kbps / 576i / 25 fps / 16:9
Audio: German / Dolby Digital Audio / 2.0 / 48 kHz / 192 kbps
Audio: German / Dolby Digital Audio / 2.0 / 48 kHz / 192 kbps
Subtitle: English / 0.000 kbps
Subtitle: German / 0.000 kbps
Subtitle: French / 0.000 kbps
Subtitle: Spanish / 0.000 kbps

********************
PLAYLIST: 00005.MPLS
********************
Total Video Title Codec Length Movie Size Disc Size Bitrate Bitrate Main Audio Track Secondary Audio Track--
- -- -- - - -00005.MPLS MPEG-2 0:02:53 0 24,612,361,668 0.00 0.00 DD AC3 2.0 192Kbps


DISC INFO:Disc Title: KARAJAN_MEMORIAL_CONCERT_2008Disc Size: 24,612,361,668 bytesProtection: AACSBD-Java: NoExtras: 50Hz ContentBDInfo: 0.5.8PLAYLIST REPORT:Name: 00005.MPLSLength: 0:02:53.506 (h:m:s.ms)Size: 0 bytesTotal Bitrate: 0.00 MbpsVIDEO:Codec Bitrate Description -- - -- MPEG-2 Video 0 kbps 480i / 29.970 fps / 4:3AUDIO:Codec Language Bitrate Description -- -- - -- Dolby Digital Audio German 192 kbps 2.0 / 48 kHz / 192 kbpsDolby Digital Audio German 192 kbps 2.0 / 48 kHz / 192 kbpsFILES:Name Time In Length Size Total Bitrate - - - - 00007.M2TS 0:00:00.000 0:02:53.173 0 0 00010.M2TS 0:02:53.173 0:00:00.333 0 0 CHAPTERS:Number Time In Length Avg Video Rate Max 1-Sec Rate Max 1-Sec Time Max 5-Sec Rate Max 5-Sec Time Max 10Sec Rate Max 10Sec Time Avg Frame Size Max Frame Size Max Frame Time - -- -- -- -- -- -- -- -- -- -- 1 0:00:00.000 0:02:53.506 0 kbps 0 kbps 00:00:00.000 0 kbps 00:00:00.000 0 kbps 00:00:00.000 0 bytes 0 bytes 00:00:00.000 STREAM DIAGNOSTICS:File PID Type Codec Language Seconds Bitrate Bytes Packets - - -- -- -- -- - -- 00007.M2TS 4113 (0x1011) 0x02 MPEG-2
0

0

0 0 00007.M2TS 4352 (0x1100) 0x81 AC3 deu (German) 0

0

0 0 00007.M2TS 4353 (0x1101) 0x81 AC3 deu (German) 0

0

0 0 00010.M2TS 4113 (0x1011) 0x02 MPEG-2
0

0

0 0


QUICK SUMMARY:

Disc Title: KARAJAN_MEMORIAL_CONCERT_2008
Disc Size: 24,612,361,668 bytes
Protection: AACS
BD-Java: No
Playlist: 00005.MPLS
Size: 0 bytes
Length: 0:02:53.506
Total Bitrate: 0.00 Mbps
Video: MPEG-2 Video / 0 kbps / 480i / 29.970 fps / 4:3
Audio: German / Dolby Digital Audio / 2.0 / 48 kHz / 192 kbps
Audio: German / Dolby Digital Audio / 2.0 / 48 kHz / 192 kbps

********************
PLAYLIST: 00007.MPLS
********************
Total Video Title Codec Length Movie Size Disc Size Bitrate Bitrate Main Audio Track Secondary Audio Track--
- -- -- - - -00007.MPLS MPEG-2 0:02:38 0 24,612,361,668 0.00 0.00 DD AC3 2.0 192Kbps


DISC INFO:Disc Title: KARAJAN_MEMORIAL_CONCERT_2008Disc Size: 24,612,361,668 bytesProtection: AACSBD-Java: NoExtras: 50Hz ContentBDInfo: 0.5.8PLAYLIST REPORT:Name: 00007.MPLSLength: 0:02:38.491 (h:m:s.ms)Size: 0 bytesTotal Bitrate: 0.00 MbpsVIDEO:Codec Bitrate Description -- - -- MPEG-2 Video 0 kbps 480i / 29.970 fps / 16:9AUDIO:Codec Language Bitrate Description -- -- - -- Dolby Digital Audio German 192 kbps 2.0 / 48 kHz / 192 kbpsDolby Digital Audio German 192 kbps 2.0 / 48 kHz / 192 kbpsFILES:Name Time In Length Size Total Bitrate - - - - 00012.M2TS 0:00:00.000 0:02:38.158 0 0 00013.M2TS 0:02:38.158 0:00:00.333 0 0 CHAPTERS:Number Time In Length Avg Video Rate Max 1-Sec Rate Max 1-Sec Time Max 5-Sec Rate Max 5-Sec Time Max 10Sec Rate Max 10Sec Time Avg Frame Size Max Frame Size Max Frame Time - -- -- -- -- -- -- -- -- -- -- 1 0:00:00.000 0:02:38.491 0 kbps 0 kbps 00:00:00.000 0 kbps 00:00:00.000 0 kbps 00:00:00.000 0 bytes 0 bytes 00:00:00.000 STREAM DIAGNOSTICS:File PID Type Codec Language Seconds Bitrate Bytes Packets - - -- -- -- -- - -- 00012.M2TS 4113 (0x1011) 0x02 MPEG-2
0

0

0 0 00012.M2TS 4352 (0x1100) 0x81 AC3 deu (German) 0

0

0 0 00012.M2TS 4353 (0x1101) 0x81 AC3 deu (German) 0

0

0 0 00013.M2TS 4113 (0x1011) 0x02 MPEG-2
0

0

0 0


QUICK SUMMARY:

Disc Title: KARAJAN_MEMORIAL_CONCERT_2008
Disc Size: 24,612,361,668 bytes
Protection: AACS
BD-Java: No
Playlist: 00007.MPLS
Size: 0 bytes
Length: 0:02:38.491
Total Bitrate: 0.00 Mbps
Video: MPEG-2 Video / 0 kbps / 480i / 29.970 fps / 16:9
Audio: German / Dolby Digital Audio / 2.0 / 48 kHz / 192 kbps
Audio: German / Dolby Digital Audio / 2.0 / 48 kHz / 192 kbps

********************
PLAYLIST: 00004.MPLS
********************
Total Video Title Codec Length Movie Size Disc Size Bitrate Bitrate Main Audio Track Secondary Audio Track--
- -- -- - - -00004.MPLS MPEG-2 0:02:31 0 24,612,361,668 0.00 0.00 DD AC3 2.0 192Kbps


DISC INFO:Disc Title: KARAJAN_MEMORIAL_CONCERT_2008Disc Size: 24,612,361,668 bytesProtection: AACSBD-Java: NoExtras: 50Hz ContentBDInfo: 0.5.8PLAYLIST REPORT:Name: 00004.MPLSLength: 0:02:31.484 (h:m:s.ms)Size: 0 bytesTotal Bitrate: 0.00 MbpsVIDEO:Codec Bitrate Description -- - -- MPEG-2 Video 0 kbps 480i / 29.970 fps / 16:9AUDIO:Codec Language Bitrate Description -- -- - -- Dolby Digital Audio German 192 kbps 2.0 / 48 kHz / 192 kbpsDolby Digital Audio German 192 kbps 2.0 / 48 kHz / 192 kbpsFILES:Name Time In Length Size Total Bitrate - - - - 00014.M2TS 0:00:00.000 0:02:31.150 0 0 00013.M2TS 0:02:31.150 0:00:00.333 0 0 CHAPTERS:Number Time In Length Avg Video Rate Max 1-Sec Rate Max 1-Sec Time Max 5-Sec Rate Max 5-Sec Time Max 10Sec Rate Max 10Sec Time Avg Frame Size Max Frame Size Max Frame Time - -- -- -- -- -- -- -- -- -- -- 1 0:00:00.000 0:02:31.484 0 kbps 0 kbps 00:00:00.000 0 kbps 00:00:00.000 0 kbps 00:00:00.000 0 bytes 0 bytes 00:00:00.000 STREAM DIAGNOSTICS:File PID Type Codec Language Seconds Bitrate Bytes Packets - - -- -- -- -- - -- 00014.M2TS 4113 (0x1011) 0x02 MPEG-2
0

0

0 0 00014.M2TS 4352 (0x1100) 0x81 AC3 deu (German) 0

0

0 0 00014.M2TS 4353 (0x1101) 0x81 AC3 deu (German) 0

0

0 0 00013.M2TS 4113 (0x1011) 0x02 MPEG-2
0

0

0 0


QUICK SUMMARY:

Disc Title: KARAJAN_MEMORIAL_CONCERT_2008
Disc Size: 24,612,361,668 bytes
Protection: AACS
BD-Java: No
Playlist: 00004.MPLS
Size: 0 bytes
Length: 0:02:31.484
Total Bitrate: 0.00 Mbps
Video: MPEG-2 Video / 0 kbps / 480i / 29.970 fps / 16:9
Audio: German / Dolby Digital Audio / 2.0 / 48 kHz / 192 kbps
Audio: German / Dolby Digital Audio / 2.0 / 48 kHz / 192 kbps

Thanks to the original uploader
DOWNLOAD LINKS:
Buy Premium To Support Me & Get Resumable Support & Max Speed

Rapidgator.net:
ool7d.H.v.K.M.C.2009.B.part01.rar.html
ool7d.H.v.K.M.C.2009.B.part02.rar.html
ool7d.H.v.K.M.C.2009.B.part03.rar.html
ool7d.H.v.K.M.C.2009.B.part04.rar.html
ool7d.H.v.K.M.C.2009.B.part05.rar.html
ool7d.H.v.K.M.C.2009.B.part06.rar.html
ool7d.H.v.K.M.C.2009.B.part07.rar.html
ool7d.H.v.K.M.C.2009.B.part08.rar.html
ool7d.H.v.K.M.C.2009.B.part09.rar.html
ool7d.H.v.K.M.C.2009.B.part10.rar.html
ool7d.H.v.K.M.C.2009.B.part11.rar.html
ool7d.H.v.K.M.C.2009.B.part12.rar.html
ool7d.H.v.K.M.C.2009.B.part13.rar.html
ool7d.H.v.K.M.C.2009.B.part14.rar.html
ool7d.H.v.K.M.C.2009.B.part15.rar.html
ool7d.H.v.K.M.C.2009.B.part16.rar.html
ool7d.H.v.K.M.C.2009.B.part17.rar.html
ool7d.H.v.K.M.C.2009.B.part18.rar.html
ool7d.H.v.K.M.C.2009.B.part19.rar.html
ool7d.H.v.K.M.C.2009.B.part20.rar.html
ool7d.H.v.K.M.C.2009.B.part21.rar.html
ool7d.H.v.K.M.C.2009.B.part22.rar.html
ool7d.H.v.K.M.C.2009.B.part23.rar.html
ool7d.H.v.K.M.C.2009.B.part24.rar.html
ool7d.H.v.K.M.C.2009.B.part25.rar.html

Uploaded.net:
ool7d.H.v.K.M.C.2009.B.part01.rar
ool7d.H.v.K.M.C.2009.B.part02.rar
ool7d.H.v.K.M.C.2009.B.part03.rar
ool7d.H.v.K.M.C.2009.B.part04.rar
ool7d.H.v.K.M.C.2009.B.part05.rar
ool7d.H.v.K.M.C.2009.B.part06.rar
ool7d.H.v.K.M.C.2009.B.part07.rar
ool7d.H.v.K.M.C.2009.B.part08.rar
ool7d.H.v.K.M.C.2009.B.part09.rar
ool7d.H.v.K.M.C.2009.B.part10.rar
ool7d.H.v.K.M.C.2009.B.part11.rar
ool7d.H.v.K.M.C.2009.B.part12.rar
ool7d.H.v.K.M.C.2009.B.part13.rar
ool7d.H.v.K.M.C.2009.B.part14.rar
ool7d.H.v.K.M.C.2009.B.part15.rar
ool7d.H.v.K.M.C.2009.B.part16.rar
ool7d.H.v.K.M.C.2009.B.part17.rar
ool7d.H.v.K.M.C.2009.B.part18.rar
ool7d.H.v.K.M.C.2009.B.part19.rar
ool7d.H.v.K.M.C.2009.B.part20.rar
ool7d.H.v.K.M.C.2009.B.part21.rar
ool7d.H.v.K.M.C.2009.B.part22.rar
ool7d.H.v.K.M.C.2009.B.part23.rar
ool7d.H.v.K.M.C.2009.B.part24.rar
ool7d.H.v.K.M.C.2009.B.part25.rar

Nitroflare.com
ool7d.H.v.K.M.C.2009.B.part01.rar
ool7d.H.v.K.M.C.2009.B.part02.rar
ool7d.H.v.K.M.C.2009.B.part03.rar
ool7d.H.v.K.M.C.2009.B.part04.rar
ool7d.H.v.K.M.C.2009.B.part05.rar
ool7d.H.v.K.M.C.2009.B.part06.rar
ool7d.H.v.K.M.C.2009.B.part07.rar
ool7d.H.v.K.M.C.2009.B.part08.rar
ool7d.H.v.K.M.C.2009.B.part09.rar
ool7d.H.v.K.M.C.2009.B.part10.rar
ool7d.H.v.K.M.C.2009.B.part11.rar
ool7d.H.v.K.M.C.2009.B.part12.rar
ool7d.H.v.K.M.C.2009.B.part13.rar
ool7d.H.v.K.M.C.2009.B.part14.rar
ool7d.H.v.K.M.C.2009.B.part15.rar
ool7d.H.v.K.M.C.2009.B.part16.rar
ool7d.H.v.K.M.C.2009.B.part17.rar
ool7d.H.v.K.M.C.2009.B.part18.rar
ool7d.H.v.K.M.C.2009.B.part19.rar
ool7d.H.v.K.M.C.2009.B.part20.rar
ool7d.H.v.K.M.C.2009.B.part21.rar
ool7d.H.v.K.M.C.2009.B.part22.rar
ool7d.H.v.K.M.C.2009.B.part23.rar
ool7d.H.v.K.M.C.2009.B.part24.rar
ool7d.H.v.K.M.C.2009.B.part25.rar

Uploadable.ch:
ool7d.H.v.K.M.C.2009.B.part01.rar
ool7d.H.v.K.M.C.2009.B.part02.rar
ool7d.H.v.K.M.C.2009.B.part03.rar
ool7d.H.v.K.M.C.2009.B.part04.rar
ool7d.H.v.K.M.C.2009.B.part05.rar
ool7d.H.v.K.M.C.2009.B.part06.rar
ool7d.H.v.K.M.C.2009.B.part07.rar
ool7d.H.v.K.M.C.2009.B.part08.rar
ool7d.H.v.K.M.C.2009.B.part09.rar
ool7d.H.v.K.M.C.2009.B.part10.rar
ool7d.H.v.K.M.C.2009.B.part11.rar
ool7d.H.v.K.M.C.2009.B.part12.rar
ool7d.H.v.K.M.C.2009.B.part13.rar
ool7d.H.v.K.M.C.2009.B.part14.rar
ool7d.H.v.K.M.C.2009.B.part15.rar
ool7d.H.v.K.M.C.2009.B.part16.rar
ool7d.H.v.K.M.C.2009.B.part17.rar
ool7d.H.v.K.M.C.2009.B.part18.rar
ool7d.H.v.K.M.C.2009.B.part19.rar
ool7d.H.v.K.M.C.2009.B.part20.rar
ool7d.H.v.K.M.C.2009.B.part21.rar
ool7d.H.v.K.M.C.2009.B.part22.rar
ool7d.H.v.K.M.C.2009.B.part23.rar
ool7d.H.v.K.M.C.2009.B.part24.rar
ool7d.H.v.K.M.C.2009.B.part25.rar

Links are Interchangeable - No Password - Single Extraction

Herbert von Karajan Memorial Concert (2009) [Blu-ray] Fast Download


Ad2

 
 
 
Dear visitor, you went to the site as an unregistered user. We encourage you to register or enter the site under your name.
 
   
 
 (Votes #: 0)