2013Zone For Latest Downloads

 
     
 
Legal Downloads » Music » Anthony Braxton - 19 Standards (Quartet) 2003 (2010) [4CD Boxset] {Leo Records}
Menu
Home Applications
Games Movies
Music TV Shows
Torrents Graphics

Sitemap

RSS
 
Advanced Search
Last News
Site Info
Top Contributors:
  1    supper88 32766
  2    admin 32693
  3    Whisky 10080
  4    Shark_ 8911
  5    creativelivenew 8706
  6    whathesupa 2799
  7    candymypost 840
  8    hvnteam 629
  9    vuong87 3


Articles:
  This Hour: 0
  Today: 0
  This Month: 0
  All Time: 515561


Torrents:
  Today: 0
  Yesterday: 0
  All Time: 156684


Membership:
  Registered Today :0
  This Hour:0
  This Month:0
  Total:14
  Banned:1

{online}
{inform_torrent}
Friend:
We Recomend
Trend
Trend
Ad1

Search In Site

Music : Anthony Braxton - 19 Standards (Quartet) 2003 (2010) [4CD Boxset] {Leo Records}
 

http://i70.fastpic.ru/big/2015/0908/3c/46a45551ccc0606151fa0b3bf60a4a3c.jpg
Anthony Braxton - 19 Standards (Quartet) 2003 (2010) [4CD Boxset] {Leo Records}
EAC rip (secure mode) | FLAC (tracks)+CUE+LOG -> 1.49 Gb | MP3 @320 -> 649 Mb
Full Artwork @ 300 dpi (png) -> 57 Mb | 5% repair rar
© 2010 Leo Records | CD LR 572/575
Jazz / Modern Jazz / Avant-Garde Jazz / Free Improvisation / Saxophone

"In 2003 Anthony Braxton Quartet went on a European tour which has become legendary. The members of this quartet were Kevin O'Neil on guitar, Kevin Norton on percussion and Andy Eulau on bass. The concept of the tour was to perform jazz standards and during the tour the quartet performed over 60 different ones. The results of the tour were two 4-CD sets entitled 23 Standards (Quartet) 2003 and 20 Standards (Quartet) 2003 released by Leo Records. Both sets received tremendous critical acclaim. Reviewers noted that Braxton performed jazz standards in an entirely new way. Rather than echoing, aping or diminishing the tradition he was reinventing it making both the past and present much richer than it was before. Now we are releasing the remaining 19 standards (no duplication with previous volumes), totalling 4.5 hours of music. The set is a must not only for Braxton's followers but for all jazz fans at large. Limited edition 500 copies."

http://i68.fastpic.ru/big/2015/0908/8e/8d1c7f4dda5d020459a32866743c348e.jpg

"On November 14, 2003, a quartet led by composer, philosopher, and multi-instrumentalist Anthony Braxton recorded more than four hours' worth of material which was issued by Leo Records in 2010 on the four-CD set 19 Standards (Quartet) 2003. This was the third four-CD set drawing upon recordings from the group's European tours during that busy and productive year. The creative small group dynamic developed by Braxton over several decades is very much in evidence as he interacts with bassist Andy Eulau, percussionist Kevin Norton, and guitarist Kevin O'Neil. Braxton's choices are astute and varied enough to make this an exceptionally satisfying effort. If to some extent "Dear Old Stockholm" and Jobim's "The Girl from Ipanema" suggest a nod to Stan Getz, Braxton probably first encountered "So Rare" on Jimmy Dorsey's popular Earl Bostic-flavored recording which dates from 1957. Braxton's take on the tune, which was originally published in 1937, focuses upon its beauty and elegance. A strong selection of heavyweight modern jazz standards in this set enables the unit to engage in some healthy extended jamming. It's a pleasure to hear how Braxton approaches Mongo Santamaria's "Afro Blue," Jackie McLean's "Little Melonae," "Mr. P.C." by John Coltrane, and "Half Nelson" by Miles Davis. The one title which you won't find on anybody else's "Standards" collection is Braxton's original "G. Petal (Improvisation)."

The range of expression resulting from Braxton's relationship with various musical traditions has always been dazzlingly expansive. Blended influences of Arnold Schoenberg, Anton Webern, Karlheinz Stockhausen, and John Cage exist in perpetual combination with literally everything that has gone into the evolution of jazz over the past century. This ambitious and open-minded approach was strongly encouraged by Muhal Richard Abrams, the AACM co-founder who deliberately introduced the ideas of Scott Joplin into that organization's itinerary from the get-go. Examine Braxton's discography, and woven throughout his many assembled original compositions you're sure to detect a recurrent pattern of recordings which tap most unconventionally into the common working jazz repertoire. In the Tradition was released in two volumes by Steeplechase in 1974, and a pair of albums devoted to standards appeared in 1985 on Windham Hill's subsidiary label Magenta. Six Monk's Compositions (1987) belongs in this category as well. Braxton's tendency to reinterpret jazz standards was given free rein throughout the following decade; with the Fred Simmons Trio, with the Mario Pavone Quintet, and in two different projects, which landed Braxton behind the piano. One particularly rewarding set of realizations was issued by Leo as 14 Compositions (Traditional) 1996, in which Braxton and Stewart Gillmor each juggled multiple instruments while savoring older melodies, some of which date back to the 1920s. Braxton's involvement with the standard repertoire continued with Barking Hoop's 8 Standards (Wesleyan 2001), which may be taken as a sort of prelude to 19 Standards (Quartet) 2003, for like the other two four-CD sets, both albums feature the same sublimely intuitive quartet. For those who simply cannot get enough of this sort of music, a stunning six-CD set of standards which Braxton recorded with three Italian musicians in a Belgian cafe has been issued by the Amarani label as Standards (Brussels) 2006."


http://i66.fastpic.ru/big/2015/0908/1a/e9ed004744517fae6967c2925961e81a.jpg


AAJ INFO

Personnel:
Kevin O'Neil: guitar
Kevin Norton: percussion
Andy Eulau: bass
Anthony Braxton: saxophones

tracklist:
CD1

01 - Four
02 - Body and Soul
03 - G. Petal (Improvisation)
04 - So Rare
05 - It's You or No One

CD2
01 - Half Nelson
02 - Ruby My Dear
03 - The Girl from Ipanema
04 - Afternoon in Paris

http://i66.fastpic.ru/big/2015/0908/ca/105a5d171d8b8cfa3a87e6ddc66842ca.jpg


CD3
01 - East of the Sun
02 - Afro Blue
03 - Nancy with the Laughing Face
04 - Little Melonae
05 - What's New

CD4
01 - Minority
02 - Inch Worm
03 - Mr. P.C.
04 - Dear Ole Stockholm
05 - Like Someone in Love

http://i70.fastpic.ru/big/2015/0908/e4/14cd27587809400bfc0b7f8f0459fce4.jpg



Exact Audio Copy V0.99 prebeta 5 from 4. May 2009

EAC extraction logfile from 26. July 2010, 17:44

Anthony Braxton / 19 Standards (Quartet) 2003 Disc 1

Used drive : HL-DT-STBDDVDRW GGC-H20L Adapter: 1 ID: 0

Read mode : Secure
Utilize accurate stream : Yes
Defeat audio cache : Yes
Make use of C2 pointers : No

Read offset correction

: 667
Overread into Lead-In and Lead-Out : No
Fill up missing offset samples with silence : Yes
Delete leading and trailing silent blocks : No
Null samples used in CRC calculations : Yes
Used interface
: Native Win32 interface for Win NT & 2000
Gap handling
: Appended to previous track

Used output format : User Defined Encoder
Selected bitrate : 128 kBit/s
Quality : High
Add ID3 tag : Yes
Command line compressor : D:\Audio\FLAC\flac.exe
Additional command line options : -V -8 -T "artist=%a" -T "title=%t" -T "album=%g" -T "date=%y" -T "tracknumber=%n" -T "genre=%m" %s

TOC of the extracted CD Track | Start | Length | Start sector | End sector
--1 | 0:00.00 | 8:24.72 | 0 | 37871 2 | 8:24.72 | 17:03.03 | 37872 | 114599 3 | 25:28.00 | 5:48.16 | 114600 | 140715 4 | 31:16.16 | 15:27.47 | 140716 | 210287 5 | 46:43.63 | 18:50.26 | 210288 | 295063

Track 1 Filename E:\!!New Rip\Anthony Braxton - 19 Standards (Quartet) 2003\01- Four.wav Pre-gap length 0:00:02.00 Peak level 99.9 %
Track quality 100.0 %
Test CRC CCF7AF6A
Copy CRC CCF7AF6A
Track not present in AccurateRip database
Copy OK

Track 2 Filename E:\!!New Rip\Anthony Braxton - 19 Standards (Quartet) 2003\02- Body and Soul.wav Pre-gap length 0:00:05.00 Peak level 99.9 %
Track quality 100.0 %
Test CRC B1CB0C7A
Copy CRC B1CB0C7A
Track not present in AccurateRip database
Copy OK

Track 3 Filename E:\!!New Rip\Anthony Braxton - 19 Standards (Quartet) 2003\03- G. Petal (Improvisation).wav Pre-gap length 0:00:04.00 Peak level 99.9 %
Track quality 100.0 %
Test CRC AF2E5D3B
Copy CRC AF2E5D3B
Track not present in AccurateRip database
Copy OK

Track 4 Filename E:\!!New Rip\Anthony Braxton - 19 Standards (Quartet) 2003\04- So Rare.wav Pre-gap length 0:00:04.00 Peak level 99.9 %
Track quality 100.0 %
Test CRC 52F8D325
Copy CRC 52F8D325
Track not present in AccurateRip database
Copy OK

Track 5 Filename E:\!!New Rip\Anthony Braxton - 19 Standards (Quartet) 2003\05- It's You or No One.wav Pre-gap length 0:00:05.00 Peak level 99.9 %
Track quality 99.9 %
Test CRC 7E6E3C63
Copy CRC 7E6E3C63
Track not present in AccurateRip database
Copy OK

None of the tracks are present in the AccurateRip database

No errors occurred

End of status report

Exact Audio Copy V0.99 prebeta 5 from 4. May 2009

EAC extraction logfile from 26. July 2010, 22:44

Anthony Braxton / 19 Standards (Quartet) 2003 Disc 2

Used drive : HL-DT-STBDDVDRW GGC-H20L Adapter: 1 ID: 0

Read mode : Secure
Utilize accurate stream : Yes
Defeat audio cache : Yes
Make use of C2 pointers : No

Read offset correction

: 667
Overread into Lead-In and Lead-Out : No
Fill up missing offset samples with silence : Yes
Delete leading and trailing silent blocks : No
Null samples used in CRC calculations : Yes
Used interface
: Native Win32 interface for Win NT & 2000
Gap handling
: Appended to previous track

Used output format : User Defined Encoder
Selected bitrate : 128 kBit/s
Quality : High
Add ID3 tag : Yes
Command line compressor : D:\Audio\FLAC\flac.exe
Additional command line options : -V -8 -T "artist=%a" -T "title=%t" -T "album=%g" -T "date=%y" -T "tracknumber=%n" -T "genre=%m" %s

TOC of the extracted CD Track | Start | Length | Start sector | End sector
--1 | 0:00.00 | 15:45.63 | 0 | 70937 2 | 15:45.63 | 15:08.49 | 70938 | 139086 3 | 30:54.37 | 10:34.36 | 139087 | 186672 4 | 41:28.73 | 23:54.68 | 186673 | 294290

Track 1 Filename E:\!!New Rip\Anthony Braxton - 19 Standards (Quartet) 2003 Disc 2\01- Half Nelson.wav Pre-gap length 0:00:02.00 Peak level 99.9 %
Track quality 100.0 %
Test CRC 7FCB9AD0
Copy CRC 7FCB9AD0
Track not present in AccurateRip database
Copy OK

Track 2 Filename E:\!!New Rip\Anthony Braxton - 19 Standards (Quartet) 2003 Disc 2\02- Ruby My Dear.wav Pre-gap length 0:00:05.00 Peak level 90.3 %
Track quality 100.0 %
Test CRC B77A576A
Copy CRC B77A576A
Track not present in AccurateRip database
Copy OK

Track 3 Filename E:\!!New Rip\Anthony Braxton - 19 Standards (Quartet) 2003 Disc 2\03- The Girl from Ipanema.wav Pre-gap length 0:00:05.00 Peak level 94.4 %
Track quality 100.0 %
Test CRC AF8676FA
Copy CRC AF8676FA
Track not present in AccurateRip database
Copy OK

Track 4 Filename E:\!!New Rip\Anthony Braxton - 19 Standards (Quartet) 2003 Disc 2\04- Afternoon in Paris.wav Pre-gap length 0:00:05.00 Peak level 100.0 %
Track quality 100.0 %
Test CRC 28F15EDB
Copy CRC 28F15EDB
Track not present in AccurateRip database
Copy OK

None of the tracks are present in the AccurateRip database

No errors occurred

End of status report

Exact Audio Copy V0.99 prebeta 5 from 4. May 2009

EAC extraction logfile from 26. July 2010, 21:07

19 Standards (Quartet) 2003 Disc 3 / Anthony Braxton

Used drive : HL-DT-STBDDVDRW GGC-H20L Adapter: 1 ID: 0

Read mode : Secure
Utilize accurate stream : Yes
Defeat audio cache : Yes
Make use of C2 pointers : No

Read offset correction

: 667
Overread into Lead-In and Lead-Out : No
Fill up missing offset samples with silence : Yes
Delete leading and trailing silent blocks : No
Null samples used in CRC calculations : Yes
Used interface
: Native Win32 interface for Win NT & 2000
Gap handling
: Appended to previous track

Used output format : User Defined Encoder
Selected bitrate : 128 kBit/s
Quality : High
Add ID3 tag : Yes
Command line compressor : D:\Audio\FLAC\flac.exe
Additional command line options : -V -8 -T "artist=%a" -T "title=%t" -T "album=%g" -T "date=%y" -T "tracknumber=%n" -T "genre=%m" %s

TOC of the extracted CD Track | Start | Length | Start sector | End sector
--1 | 0:00.00 | 20:17.42 | 0 | 91316 2 | 20:17.42 | 12:14.68 | 91317 | 146434 3 | 32:32.35 | 13:32.01 | 146435 | 207335 4 | 46:04.36 | 13:54.55 | 207336 | 269940 5 | 59:59.16 | 11:55.12 | 269941 | 323577

Track 1 Filename E:\!!New Rip\Anthony Braxton - 19 Standards (Quartet) 2003 Disc 3\01- East of the Sun.wav Pre-gap length 0:00:02.00 Peak level 100.0 %
Track quality 100.0 %
Test CRC EF022E5E
Copy CRC EF022E5E
Track not present in AccurateRip database
Copy OK

Track 2 Filename E:\!!New Rip\Anthony Braxton - 19 Standards (Quartet) 2003 Disc 3\02- Afro Blue.wav Pre-gap length 0:00:05.00 Peak level 99.9 %
Track quality 100.0 %
Test CRC EBFDEAF4
Copy CRC EBFDEAF4
Track not present in AccurateRip database
Copy OK

Track 3 Filename E:\!!New Rip\Anthony Braxton - 19 Standards (Quartet) 2003 Disc 3\03- Nancy with the Laughing Face.wav Pre-gap length 0:00:05.00 Peak level 94.4 %
Track quality 100.0 %
Test CRC 83822CAE
Copy CRC 83822CAE
Track not present in AccurateRip database
Copy OK

Track 4 Filename E:\!!New Rip\Anthony Braxton - 19 Standards (Quartet) 2003 Disc 3\04- Little Melonae.wav Pre-gap length 0:00:05.00 Peak level 93.2 %
Track quality 100.0 %
Test CRC F80C1E98
Copy CRC F80C1E98
Track not present in AccurateRip database
Copy OK

Track 5 Filename E:\!!New Rip\Anthony Braxton - 19 Standards (Quartet) 2003 Disc 3\05- What's New.wav Pre-gap length 0:00:05.00 Peak level 97.3 %
Track quality 100.0 %
Test CRC 9DE1259D
Copy CRC 9DE1259D
Track not present in AccurateRip database
Copy OK

None of the tracks are present in the AccurateRip database

No errors occurred

End of status report

Exact Audio Copy V0.99 prebeta 5 from 4. May 2009

EAC extraction logfile from 27. July 2010, 11:49

Anthony Braxton / 19 Standards (Quartet) 2003 Disc 4

Used drive : HL-DT-STBDDVDRW GGC-H20L Adapter: 1 ID: 0

Read mode : Secure
Utilize accurate stream : Yes
Defeat audio cache : Yes
Make use of C2 pointers : No

Read offset correction

: 667
Overread into Lead-In and Lead-Out : No
Fill up missing offset samples with silence : Yes
Delete leading and trailing silent blocks : No
Null samples used in CRC calculations : Yes
Used interface
: Native Win32 interface for Win NT & 2000
Gap handling
: Appended to previous track

Used output format : User Defined Encoder
Selected bitrate : 128 kBit/s
Quality : High
Add ID3 tag : Yes
Command line compressor : D:\Audio\FLAC\flac.exe
Additional command line options : -V -8 -T "artist=%a" -T "title=%t" -T "album=%g" -T "date=%y" -T "tracknumber=%n" -T "genre=%m" %s

TOC of the extracted CD Track | Start | Length | Start sector | End sector
--1 | 0:00.00 | 10:15.59 | 0 | 46183 2 | 10:15.59 | 13:33.35 | 46184 | 107193 3 | 23:49.19 | 16:13.73 | 107194 | 180241 4 | 40:03.17 | 9:19.06 | 180242 | 222172 5 | 49:22.23 | 19:59.56 | 222173 | 312153

Track 1 Filename E:\!!New Rip\Anthony Braxton - 19 Standards (Quartet) 2003 Disc 4\01- Minority.wav Pre-gap length 0:00:02.00 Peak level 99.9 %
Track quality 100.0 %
Test CRC EB78942B
Copy CRC EB78942B
Track not present in AccurateRip database
Copy OK

Track 2 Filename E:\!!New Rip\Anthony Braxton - 19 Standards (Quartet) 2003 Disc 4\02- Inch Worm.wav Pre-gap length 0:00:05.00 Peak level 88.5 %
Track quality 100.0 %
Test CRC 46FE4B2C
Copy CRC 46FE4B2C
Track not present in AccurateRip database
Copy OK

Track 3 Filename E:\!!New Rip\Anthony Braxton - 19 Standards (Quartet) 2003 Disc 4\03- Mr. P.C..wav Pre-gap length 0:00:05.00 Peak level 99.9 %
Track quality 100.0 %
Test CRC 3509D571
Copy CRC 3509D571
Track not present in AccurateRip database
Copy OK

Track 4 Filename E:\!!New Rip\Anthony Braxton - 19 Standards (Quartet) 2003 Disc 4\04- Dear Ole Stockholm.wav Pre-gap length 0:00:05.00 Peak level 89.7 %
Track quality 100.0 %
Test CRC 6F8FE4CD
Copy CRC 6F8FE4CD
Track not present in AccurateRip database
Copy OK

Track 5 Filename E:\!!New Rip\Anthony Braxton - 19 Standards (Quartet) 2003 Disc 4\05- Like Someone in Love.wav Pre-gap length 0:00:05.00 Peak level 98.3 %
Track quality 100.0 %
Test CRC 4E1394A2
Copy CRC 4E1394A2
Track not present in AccurateRip database
Copy OK

None of the tracks are present in the AccurateRip database

No errors occurred

End of status report

http://i66.fastpic.ru/big/2015/0908/84/ba8f98b1cb726d4656ad0ac558748b84.jpg


thanks to iwals...
DOWNLOAD LINKS:
Buy Premium To Support Me & Get Resumable Support & Max Speed

Rapidgator.net:
zuhtw.braxton19standardsquartetARTWORK.rar.html
zuhtw.braxton19standardsquartetCD1.part1.rar.html
zuhtw.braxton19standardsquartetCD1.part2.rar.html
zuhtw.braxton19standardsquartetCD1MP.rar.html
zuhtw.braxton19standardsquartetCD2.part1.rar.html
zuhtw.braxton19standardsquartetCD2.part2.rar.html
zuhtw.braxton19standardsquartetCD2MP.rar.html
zuhtw.braxton19standardsquartetCD3.part1.rar.html
zuhtw.braxton19standardsquartetCD3.part2.rar.html
zuhtw.braxton19standardsquartetCD3.part3.rar.html
zuhtw.braxton19standardsquartetCD3MP.rar.html
zuhtw.braxton19standardsquartetCD4.part1.rar.html
zuhtw.braxton19standardsquartetCD4.part2.rar.html
zuhtw.braxton19standardsquartetCD4MP.rar.html

Uploaded.net:
zuhtw.braxton19standardsquartetARTWORK.rar
zuhtw.braxton19standardsquartetCD1.part1.rar
zuhtw.braxton19standardsquartetCD1.part2.rar
zuhtw.braxton19standardsquartetCD1MP.rar
zuhtw.braxton19standardsquartetCD2.part1.rar
zuhtw.braxton19standardsquartetCD2.part2.rar
zuhtw.braxton19standardsquartetCD2MP.rar
zuhtw.braxton19standardsquartetCD3.part1.rar
zuhtw.braxton19standardsquartetCD3.part2.rar
zuhtw.braxton19standardsquartetCD3.part3.rar
zuhtw.braxton19standardsquartetCD3MP.rar
zuhtw.braxton19standardsquartetCD4.part1.rar
zuhtw.braxton19standardsquartetCD4.part2.rar
zuhtw.braxton19standardsquartetCD4MP.rar

Nitroflare.com
zuhtw.braxton19standardsquartetARTWORK.rar
zuhtw.braxton19standardsquartetCD1.part1.rar
zuhtw.braxton19standardsquartetCD1.part2.rar
zuhtw.braxton19standardsquartetCD1MP.rar
zuhtw.braxton19standardsquartetCD2.part1.rar
zuhtw.braxton19standardsquartetCD2.part2.rar
zuhtw.braxton19standardsquartetCD2MP.rar
zuhtw.braxton19standardsquartetCD3.part1.rar
zuhtw.braxton19standardsquartetCD3.part2.rar
zuhtw.braxton19standardsquartetCD3.part3.rar
zuhtw.braxton19standardsquartetCD3MP.rar
zuhtw.braxton19standardsquartetCD4.part1.rar
zuhtw.braxton19standardsquartetCD4.part2.rar
zuhtw.braxton19standardsquartetCD4MP.rar

Uploadable.ch:
zuhtw.braxton19standardsquartetARTWORK.rar
zuhtw.braxton19standardsquartetCD1.part1.rar
zuhtw.braxton19standardsquartetCD1.part2.rar
zuhtw.braxton19standardsquartetCD1MP.rar
zuhtw.braxton19standardsquartetCD2.part1.rar
zuhtw.braxton19standardsquartetCD2.part2.rar
zuhtw.braxton19standardsquartetCD2MP.rar
zuhtw.braxton19standardsquartetCD3.part1.rar
zuhtw.braxton19standardsquartetCD3.part2.rar
zuhtw.braxton19standardsquartetCD3.part3.rar
zuhtw.braxton19standardsquartetCD3MP.rar
zuhtw.braxton19standardsquartetCD4.part1.rar
zuhtw.braxton19standardsquartetCD4.part2.rar
zuhtw.braxton19standardsquartetCD4MP.rar

Links are Interchangeable - No Password - Single Extraction

Anthony Braxton - 19 Standards (Quartet) 2003 (2010) [4CD Boxset] {Leo Records} Fast Download


Ad2

 
 
 
Dear visitor, you went to the site as an unregistered user. We encourage you to register or enter the site under your name.
 
   
 
 (Votes #: 0)