2013Zone For Latest Downloads

 
     
 
Legal Downloads » Music » Henry Gray & Bob Corritore - The Henry Gray & Bob Corritore Sessions, Vol. 1: Blues Won't Let Me Take My Rest (2015)
Menu
Home Applications
Games Movies
Music TV Shows
Torrents Graphics

Sitemap

RSS
 
Advanced Search
Last News
Site Info
Top Contributors:
  1    supper88 32766
  2    admin 32671
  3    Whisky 10080
  4    Shark_ 8911
  5    creativelivenew 8706
  6    whathesupa 2799
  7    candymypost 840
  8    hvnteam 629
  9    vuong87 3


Articles:
  This Hour: 0
  Today: 0
  This Month: 58
  All Time: 515616


Torrents:
  Today: 0
  Yesterday: 0
  All Time: 156702


Membership:
  Registered Today :0
  This Hour:0
  This Month:0
  Total:14
  Banned:1

{online}
{inform_torrent}
Friend:
We Recomend
Trend
Trend
Ad1

Search In Site

Music : Henry Gray & Bob Corritore - The Henry Gray & Bob Corritore Sessions, Vol. 1: Blues Won't Let Me Take My Rest (2015)
 
http://i72.fastpic.ru/big/2015/0906/8f/b9c366e15eb0b45009913dfcfd757a8f.jpg

Henry Gray & Bob Corritore - The Henry Gray & Bob Corritore Sessions, Vol. 1: Blues Won't Let Me Take My Rest (2015)
EAC | FLAC | Image (Cue&Log) ~ 336 Mb (incl 5%) | Mp3 (CBR320) ~ 126 Mb (incl 5%) | Scans included
Genre: Modern Electric Blues, Piano Blues | Label: Delta Groove Records | # DGPCD169 | Time: 00:51:18

"Legendary blues pianist Henry Gray has collaborated with harmonica ace Bob Corritore since 1996. This first volume presents a 14 song selection recorded over a 19-year period. Henry sings 9 of these selections and Robert Lockwood Jr. , John Brim, Nappy Brown, Tail Dragger and Dave Riley provide one vocal each. Joining the proceedings are a rotating lineup of some of the blues' greatest musicians, including Bob Margolin, Kid Ramos, Kirk Fletcher, Big Jon Atkinson, Chris James, Patrick Rynn, Bob Stroger, Chico Chism, June Core, Doug James and many more, for a program of fully-realized songs that alternate between rollicking, partying jumps and shuffles to the deepest of blues!"

Henry Gray at Allmusic
Henry Gray Website
Henry Gray at Wiki

Bob Corritore at Allmusic
Bob Corritore Website
Bob Corritore at Wiki

Tracklist:

01. Let's Get High (03:52)
02. Blues Won't Let Me Take My Rest (03:58)
03. I'm In Love Again (02:54)
04. Ramblin' On My Mind (03:14)
05. Worrried Life Blues (03:07)
06. They Raided The Joint (03:02)
07. Ride With Your Daddy (03:14)
08. Trouble Blues (05:33)
09. I'm Gonna Miss You (03:57)
10. That Ain't Right (02:47)
11. Can't Afford To Do It (03:29)
12. Boogie Woogie Ball (04:27)
13. Honey Don't Let Me Go (03:04)
14. You Don't Move Me No More (04:34)


Exact Audio Copy V1.0 beta 6 from 9. April 2015

EAC extraction logfile from 1. September 2015, 23:08

Henry Gray and Bob Corritore / Blues Won't Let Me Take My Rest

Used drive : Optiarc DVD RW AD-7240S Adapter: 1 ID: 0

Read mode : Secure
Utilize accurate stream : Yes
Defeat audio cache : Yes
Make use of C2 pointers : No

Read offset correction

: 48
Overread into Lead-In and Lead-Out : No
Fill up missing offset samples with silence : Yes
Delete leading and trailing silent blocks : No
Null samples used in CRC calculations : Yes
Used interface
: Native Win32 interface for Win NT & 2000

Used output format : User Defined Encoder
Selected bitrate : 896 kBit/s
Quality : High
Add ID3 tag : No
Command line compressor : C:\Program Files (x86)\Exact Audio Copy\Flac\flac.exe
Additional command line options : -6 -V -T "ARTIST=%artist%" -T "TITLE=%title%" -T "ALBUM=%albumtitle%" -T "DATE=%year%" -T "TRACKNUMBER=%tracknr%" -T "GENRE=%genre%" -T "COMMENT=%comment%" -T "BAND=%albuminterpret%" -T "COMPOSER=%composer%" %haslyrics%--tag-from-file=LYRICS="%lyricsfile%"%haslyrics% -T "DISCNUMBER=%cdnumber%" -T "TOTALDISCS=%totalcds%" -T "TOTALTRACKS=%numtracks%" %hascover%--picture="%coverfile%"%hascover% %source% -o %dest%

TOC of the extracted CD Track | Start | Length | Start sector | End sector
--1 | 0:00.00 | 3:52.31 | 0 | 17430 2 | 3:52.31 | 3:58.07 | 17431 | 35287 3 | 7:50.38 | 2:54.05 | 35288 | 48342 4 | 10:44.43 | 3:14.33 | 48343 | 62925 5 | 13:59.01 | 3:07.16 | 62926 | 76966 6 | 17:06.17 | 3:02.58 | 76967 | 90674 7 | 20:09.00 | 3:14.60 | 90675 | 105284 8 | 23:23.60 | 5:33.22 | 105285 | 130281 9 | 28:57.07 | 3:57.32 | 130282 | 148088
10 | 32:54.39 | 2:47.12 | 148089 | 160625
11 | 35:41.51 | 3:29.24 | 160626 | 176324
12 | 39:11.00 | 4:27.67 | 176325 | 196416
13 | 43:38.67 | 3:04.38 | 196417 | 210254
14 | 46:43.30 | 4:34.43 | 210255 | 230847

Range status and errors

Selected range Filename D:\My Music Archive_D\__My Rips\The Henry Gray & Bob Corritore Sessions - Vol. 1 - Blues Won't Let Me Take My Rest\The Henry Gray & Bob Corritore Sessions - Vol. 1 - Blues Won't Let Me Take My Rest.wav Peak level 100.0 %
Extraction speed 3.8 X
Range quality 99.9 %
Test CRC 845E7C59
Copy CRC 845E7C59
Copy OK

No errors occurred


AccurateRip summary

Track 1 accurately ripped (confidence 1) [D891294A] (AR v2)
Track 2 accurately ripped (confidence 1) [6AF36F5D] (AR v2)
Track 3 accurately ripped (confidence 1) [1382D20A] (AR v2)
Track 4 accurately ripped (confidence 1) 6183319 (AR v2)
Track 5 accurately ripped (confidence 1) [0ABED9C0] (AR v2)
Track 6 accurately ripped (confidence 1) [C77BAABE] (AR v2)
Track 7 accurately ripped (confidence 1) 75A9428 (AR v2)
Track 8 accurately ripped (confidence 1) [705D5069] (AR v2)
Track 9 accurately ripped (confidence 1) [0920DF96] (AR v2)
Track 10 accurately ripped (confidence 1) [5E5BDB15] (AR v2)
Track 11 accurately ripped (confidence 1) [564DB274] (AR v2)
Track 12 accurately ripped (confidence 1) [4E6F33D4] (AR v2)
Track 13 accurately ripped (confidence 1) [D6710CB0] (AR v2)
Track 14 accurately ripped (confidence 1) [27B620FC] (AR v2)

All tracks accurately ripped

End of status report

==== Log checksum 02E3D342AB853342DED15C59F95A84FA912F031B8207292F1B0B133CD7A71192 ====

foobar2000 1.2 / Dynamic Range Meter 1.1.1
log date: 2015-09-04 13:33:21

Analyzed: / Blues Won't Let Me Take My Rest

DR Peak RMS Duration Track

DR9 -0.10 dB -10.89 dB 3:52 01-Let's Get High
DR10 0.00 dB -10.99 dB 3:58 02-Blues Won't Let Me Take My Rest
DR10 -0.10 dB -11.52 dB 2:54 03-I'm In Love Again
DR9 -0.10 dB -10.36 dB 3:14 04-Ramblin' On My Mind
DR9 -0.10 dB -9.82 dB 3:07 05-Worrried Life Blues
DR9 -0.82 dB -10.79 dB 3:03 06-They Raided The Joint
DR9 -0.10 dB -10.43 dB 3:15 07-Ride With Your Daddy
DR9 -0.74 dB -11.52 dB 5:33 08-Trouble Blues
DR7 -0.10 dB -8.30 dB 3:57 09-I'm Gonna Miss You
DR9 -0.14 dB -10.06 dB 2:47 10-That Ain't Right
DR9 -0.30 dB -10.57 dB 3:29 11-Can't Afford To Do It
DR7 0.00 dB -8.70 dB 4:28 12-Boogie Woogie Ball
DR11 -0.10 dB -12.23 dB 3:05 13-Honey Don't Let Me Go
DR10 -0.21 dB -12.42 dB 4:35 14-You Don't Move Me No More

Number of tracks: 14
Official DR value: DR9

Samplerate: 44100 Hz
Channels: 2
Bits per sample: 16
Bitrate: 866 kbps
Codec: FLAC

http://i67.fastpic.ru/big/2015/0906/8c/16eb00af7dd8c63278ac47dac06ef58c.jpg

http://i67.fastpic.ru/big/2015/0906/1b/9ac75366bb6a3dd8b32440e9dab6b01b.jpg

All thanks to original releaser - funny_horse
Password: designol

DOWNLOAD LINKS:
Buy Premium To Support Me & Get Resumable Support & Max Speed


Links are Interchangeable - No Password - Single Extraction

Henry Gray & Bob Corritore - The Henry Gray & Bob Corritore Sessions, Vol. 1: Blues Won't Let Me Take My Rest (2015) Fast Download


Ad2

 
 
 
Dear visitor, you went to the site as an unregistered user. We encourage you to register or enter the site under your name.
 
   
 
 (Votes #: 0)