2013Zone For Latest Downloads

 
     
 
Legal Downloads » Music » Farout - Further Out (1979) [Remastered 2012]
Menu
Home Applications
Games Movies
Music TV Shows
Torrents Graphics

Sitemap

RSS
 
Advanced Search
Last News
Site Info
Top Contributors:
  1    supper88 32766
  2    admin 32693
  3    Whisky 10080
  4    Shark_ 8911
  5    creativelivenew 8706
  6    whathesupa 2799
  7    candymypost 840
  8    hvnteam 629
  9    vuong87 3


Articles:
  This Hour: 0
  Today: 0
  This Month: 0
  All Time: 515561


Torrents:
  Today: 0
  Yesterday: 0
  All Time: 156684


Membership:
  Registered Today :0
  This Hour:0
  This Month:0
  Total:14
  Banned:1

{online}
{inform_torrent}
Friend:
We Recomend
Trend
Trend
Ad1

Search In Site

Music : Farout - Further Out (1979) [Remastered 2012]
 
http://i72.fastpic.ru/big/2015/0906/0b/6af45e549dff0a62eea1983dbb43dd0b.jpg

Farout - Further Out (1979) [Remastered 2012]
EAC Rip | FLAC (tracks & cue & log) | 477 MB | MP3 CBR 320 kbps | 163 MB | Scans (JPEG 600 dpi) | 39 MB | 52:20
Genre: Progressive Rock / Jazz-Rock / Fusion / Jazz-Funk | Country: Finland | Label: Rocket Records | ROK-105

"Farout is a progressive rock band from Lappeenranta, Finland. It was founded in 1977 and was active until 1982 with various setups. Farout was the progressive rock champion in the Finnish Rock music contest in spring 1978. The band recorded their only LP-record so far for Kompass Records at Birdland Studios, Mellunmaki, Helsinki, in 1979. The creditable record engineering was done by Dan Tigersted, the studio guru of those days. He recorded the material on an 8-track recorder during five long working days.The tenor saxophone and flute player, late Pekka Poyry guest starred on the record. Poyry, who died in 1980, became well known for his credits with e.g. Tasavallan Presidentti and Jukka Tolonen Band among numerous other recordings."

http://i72.fastpic.ru/big/2015/0906/2e/6a4e9bc608944717f03f07f517c21d2e.jpg

discogs

Tracklist:

1. Nassau Boogie 4:50
2. Daybreak 2:23
3. Muppet Dance 5:00
4. Further Out 4:07
5. Walrus Jump 3:00
6. Do It 5:08
7. Four To Two 4:36
8. Tidy 3:37
9. Brainwash (...Uhh!) 5:47
10. Headlights 5:19
11. Essential Spirangel 5:52
12. Flash Woman 4:52
13. Further Out Vol. 1 5:35
14. Fearless Clown 3:14
15. Red Cabbage 7:54

Exact Audio Copy V1.0 beta 3 from 29. August 2011

EAC extraction logfile from 8. June 2012, 1:29

Farout / Further Out

Used drive : _NEC DVD_RW ND-3540A Adapter: 1 ID: 1

Read mode : Secure
Utilize accurate stream : Yes
Defeat audio cache : Yes
Make use of C2 pointers : No

Read offset correction

: 48
Overread into Lead-In and Lead-Out : No
Fill up missing offset samples with silence : Yes
Delete leading and trailing silent blocks : No
Null samples used in CRC calculations : Yes
Used interface
: Native Win32 interface for Win NT & 2000
Gap handling
: Appended to previous track

Used output format : User Defined Encoder
Selected bitrate : 1024 kBit/s
Quality : High
Add ID3 tag : Yes
Command line compressor : C:\Program Files (x86)\Exact Audio Copy\FLAC\FLAC.EXE
Additional command line options : -6 -V -T "ARTIST=%artist%" -T "TITLE=%title%" -T "ALBUM=%albumtitle%" -T "DATE=%year%" -T "TRACKNUMBER=%tracknr%" -T "GENRE=%genre%" -T "COMMENT=%comment%" %hascover%--picture="%coverfile%"%hascover% %source% -o %dest%

TOC of the extracted CD Track | Start | Length | Start sector | End sector
--1 | 0:00.00 | 4:50.71 | 0 | 21820 2 | 4:50.71 | 2:23.16 | 21821 | 32561 3 | 7:14.12 | 5:00.40 | 32562 | 55101 4 | 12:14.52 | 4:07.01 | 55102 | 73627 5 | 16:21.53 | 3:00.14 | 73628 | 87141 6 | 19:21.67 | 5:08.45 | 87142 | 110286 7 | 24:30.37 | 4:36.06 | 110287 | 130992 8 | 29:06.43 | 3:37.36 | 130993 | 147303 9 | 32:44.04 | 5:47.08 | 147304 | 173336
10 | 38:31.12 | 5:19.17 | 173337 | 197278
11 | 43:50.29 | 5:52.38 | 197279 | 223716
12 | 49:42.67 | 4:52.37 | 223717 | 245653
13 | 54:35.29 | 5:35.50 | 245654 | 270828
14 | 60:11.04 | 3:14.05 | 270829 | 285383
15 | 63:25.09 | 7:54.09 | 285384 | 320942

Track 1 Filename D:\Music\olaf_alien\Farout - Further Out (1979, Kompass - 2012, Rocket)\01 - Nassau Boogie.wav Pre-gap length 0:00:02.00 Peak level 97.7 %
Extraction speed 4.2 X
Track quality 100.0 %
Test CRC 52F347BB
Copy CRC 52F347BB
Track not present in AccurateRip database
Copy OK

Track 2 Filename D:\Music\olaf_alien\Farout - Further Out (1979, Kompass - 2012, Rocket)\02 - Daybreak.wav Peak level 69.4 %
Extraction speed 3.7 X
Track quality 100.0 %
Test CRC 8CD36700
Copy CRC 8CD36700
Track not present in AccurateRip database
Copy OK

Track 3 Filename D:\Music\olaf_alien\Farout - Further Out (1979, Kompass - 2012, Rocket)\03 - Muppet Dance.wav Peak level 97.6 %
Extraction speed 4.2 X
Track quality 100.0 %
Test CRC BCD72275
Copy CRC BCD72275
Track not present in AccurateRip database
Copy OK

Track 4 Filename D:\Music\olaf_alien\Farout - Further Out (1979, Kompass - 2012, Rocket)\04 - Further Out.wav Peak level 97.6 %
Extraction speed 2.6 X
Track quality 99.9 %
Test CRC FA8229DF
Copy CRC FA8229DF
Track not present in AccurateRip database
Copy OK

Track 5 Filename D:\Music\olaf_alien\Farout - Further Out (1979, Kompass - 2012, Rocket)\05 - Walrus Jump.wav Peak level 97.7 %
Extraction speed 3.9 X
Track quality 100.0 %
Test CRC 6B9AE28C
Copy CRC 6B9AE28C
Track not present in AccurateRip database
Copy OK

Track 6 Filename D:\Music\olaf_alien\Farout - Further Out (1979, Kompass - 2012, Rocket)\06 - Do It.wav Peak level 97.7 %
Extraction speed 4.3 X
Track quality 100.0 %
Test CRC 94EC83DE
Copy CRC 94EC83DE
Track not present in AccurateRip database
Copy OK

Track 7 Filename D:\Music\olaf_alien\Farout - Further Out (1979, Kompass - 2012, Rocket)\07 - Four To Two.wav Peak level 97.7 %
Extraction speed 4.2 X
Track quality 100.0 %
Test CRC E9DE6CCE
Copy CRC E9DE6CCE
Track not present in AccurateRip database
Copy OK

Track 8 Filename D:\Music\olaf_alien\Farout - Further Out (1979, Kompass - 2012, Rocket)\08 - Tidy.wav Peak level 97.7 %
Extraction speed 2.7 X
Track quality 99.9 %
Test CRC 80252C92
Copy CRC 80252C92
Track not present in AccurateRip database
Copy OK

Track 9 Filename D:\Music\olaf_alien\Farout - Further Out (1979, Kompass - 2012, Rocket)\09 - Brainwash (...Uhh!).wav Peak level 90.8 %
Extraction speed 4.3 X
Track quality 100.0 %
Test CRC 0E85D9FD
Copy CRC 0E85D9FD
Track not present in AccurateRip database
Copy OK

Track 10 Filename D:\Music\olaf_alien\Farout - Further Out (1979, Kompass - 2012, Rocket)\10 - Headlights onus Track.wav Peak level 99.4 %
Extraction speed 4.3 X
Track quality 100.0 %
Test CRC 8120C2E6
Copy CRC 8120C2E6
Track not present in AccurateRip database
Copy OK

Track 11 Filename D:\Music\olaf_alien\Farout - Further Out (1979, Kompass - 2012, Rocket)\11 - Essential Spirangel onus Track.wav Peak level 99.4 %
Extraction speed 4.3 X
Track quality 100.0 %
Test CRC FB58D18E
Copy CRC FB58D18E
Track not present in AccurateRip database
Copy OK

Track 12 Filename D:\Music\olaf_alien\Farout - Further Out (1979, Kompass - 2012, Rocket)\12 - Flash Woman onus Track.wav Peak level 99.4 %
Extraction speed 3.3 X
Track quality 99.9 %
Test CRC 602B1F3C
Copy CRC 602B1F3C
Track not present in AccurateRip database
Copy OK

Track 13 Filename D:\Music\olaf_alien\Farout - Further Out (1979, Kompass - 2012, Rocket)\13 - Further Out Vol. 1 onus Track.wav Peak level 99.4 %
Extraction speed 3.4 X
Track quality 99.9 %
Test CRC F611275B
Copy CRC F611275B
Track not present in AccurateRip database
Copy OK

Track 14 Filename D:\Music\olaf_alien\Farout - Further Out (1979, Kompass - 2012, Rocket)\14 - Fearless Clown onus Track.wav Peak level 99.4 %
Extraction speed 4.0 X
Track quality 100.0 %
Test CRC 3EC93CF8
Copy CRC 3EC93CF8
Track not present in AccurateRip database
Copy OK

Track 15 Filename D:\Music\olaf_alien\Farout - Further Out (1979, Kompass - 2012, Rocket)\15 - Red Cabbage onus Track.wav Peak level 99.4 %
Extraction speed 3.8 X
Track quality 99.9 %
Test CRC A6FCB6C9
Copy CRC A6FCB6C9
Track not present in AccurateRip database
Copy OK

None of the tracks are present in the AccurateRip database

No errors occurred

End of status report

==== Log checksum 9C2B497716C9A8AC99556A9CB6357DC1FA3E709286FCBEF783F854F2CA11DF36 ====

Personnel

- Ari Erkko (electric & acoustic guitars)
- Ike Kallio (Yamaha CS-80 synth., Hammond organ, Micro Moog sinth.)
- Jarmo Nikku (electric & acoustic guitars, tambourine)
- Ismo Homanen (Fender Rhodes piano, string sinth., Micro Moog sinth.)
- Jouni Limingoja (bass)
- Lauri Valjakka (drums, Roto-toms, Chimes, tambourine, congas, lyrics & vocal)

All thanks to original releaser

http://i70.fastpic.ru/big/2015/0906/b7/90ce7df5f58e398da12678baa808a4b7.jpg


DOWNLOAD LINKS:
Buy Premium To Support Me & Get Resumable Support & Max Speed


Links are Interchangeable - No Password - Single Extraction

Farout - Further Out (1979) [Remastered 2012] Fast Download


Ad2

 
 
 
Dear visitor, you went to the site as an unregistered user. We encourage you to register or enter the site under your name.
 
   
 
 (Votes #: 0)