2013Zone For Latest Downloads

 
     
 
Legal Downloads » TV Shows » National Geographic - Shark Survivors: USA (2015)
Menu
Home Applications
Games Movies
Music TV Shows
Torrents Graphics

Sitemap

RSS
 
Advanced Search
Last News
Site Info
Top Contributors:
  1    supper88 32766
  2    admin 32693
  3    Whisky 10080
  4    Shark_ 8911
  5    creativelivenew 8706
  6    whathesupa 2799
  7    candymypost 840
  8    hvnteam 629
  9    vuong87 3


Articles:
  This Hour: 0
  Today: 0
  This Month: 30
  All Time: 515561


Torrents:
  Today: 0
  Yesterday: 0
  All Time: 156684


Membership:
  Registered Today :0
  This Hour:0
  This Month:0
  Total:14
  Banned:1

{online}
{inform_torrent}
Friend:
We Recomend
Trend
Trend
Ad1

Search In Site

TV Shows : National Geographic - Shark Survivors: USA (2015)
 

http://i65.fastpic.ru/big/2015/0908/94/704dd1b52af4bac459aa2ba0540fe394.jpg
National Geographic - Shark Survivors: USA (2015)
HDTV | 1280x720 | .MKV/AVC @ 3338 Kbps | 41mn 39s | Audio: English MP2 192 kbps, 2 channels | Subs: None | 1.05 GiB
Genre: Documentary

"Across the coastal waters of the United States, witness breath-taking shark behaviour, rare shark footage and interviews with experts and attack victims. Some of the most beautiful beaches in the United States also feature the highest incidences of shark encounters. Filled with the latest shark facts, United Sharks of America counts down America's shark hot spots and offers an essential guide to shark activity and avoidance. The leading experts deconstruct shark attacks and provide valuable tips to stay out of their path. Learn about shark hunting techniques, hear from shark attack survivors and get to know the wide variety of shark species that thrive along the coastal U.S."

General
Unique ID
: 244225386156028458219675413739548043110 (0xB7BC193337475852936CA641AEF9E766)
Complete name : National.Geographic.Shark.Survivors.USA.mkv
Format
: Matroska
Format version : Version 4 / Version 2
File size
: 1.05 GiB
Duration
: 41mn 39s
Overall bit rate : 3 602 Kbps

Video
ID : 1
Format
: AVC
Format/Info
: Advanced Video Codec
Format profile : [email protected]
Format settings, CABAC : Yes
Format settings, ReFrames : 5 frames
Codec ID
: V_MPEG4/ISO/AVC
Duration
: 41mn 39s
Bit rate
: 3 338 Kbps
Width
: 1 280 pixels
Height
: 720 pixels
Display aspect ratio : 16:9
Frame rate mode : Constant
Frame rate
: 29.970 fps
Color space
: YUV
Chroma subsampling

: 4:2:0
Bit depth
: 8 bits
Scan type
: Progressive
Bits/(Pixel*Frame)

: 0.121
Stream size
: 995 MiB (93%)
Writing library : x264 core 148 r2597 e86f3a1
Encoding settings: cabac=1 / ref=5 / deblock=1:-2:-2 / analyse=0x3:0x113 / me=umh / subme=8 / psy=1 / psy_rd=1.00:0.00 / mixed_ref=1 / me_range=16 / chroma_me=1 / trellis=1 / 8x8dct=1 / cqm=0 / deadzone=21,11 / fast_pskip=1 / chroma_qp_offset=-2 / threads=12 / lookahead_threads=2 / sliced_threads=0 / nr=0 / decimate=1 / interlaced=0 / bluray_compat=0 / constrained_intra=0 / bframes=3 / b_pyramid=2 / b_adapt=2 / b_bias=0 / direct=3 / weightb=1 / open_gop=0 / weightp=2 / keyint=250 / keyint_min=25 / scenecut=40 / intra_refresh=0 / rc_lookahead=50 / rc=crf / mbtree=1 / crf=20.0 / qcomp=0.60 / qpmin=0 / qpmax=69 / qpstep=4 / ip_ratio=1.40 / aq=1:1.00
Language
: English
Default
: Yes
Forced
: No
DURATION
: 00:41:39.546000000
NUMBER_OF_FRAMES : 74912
NUMBER_OF_BYTES : 1064700672
_STATISTICS_WRITING_APP : mkvmerge v8.3.0 ('Over the Horizon') 64bit
_STATISTICS_WRITING_DATE_UTC : 2015-09-04 19:20:17
_STATISTICS_TAGS : BPS DURATION NUMBER_OF_FRAMES NUMBER_OF_BYTES

Audio
ID : 2
Format
: MPEG Audio
Format version : Version 1
Format profile : Layer 2
Codec ID
: A_MPEG/L2
Codec ID/Hint : MP2
Duration
: 41mn 39s
Bit rate mode : Constant
Bit rate
: 192 Kbps
Channel(s)
: 2 channels
Sampling rate : 48.0 KHz
Compression mode : Lossy
Delay relative to video : 197ms
Stream size
: 57.2 MiB (5%)
Default
: Yes
Forced
: No

Screenshots:

http://i71.fastpic.ru/big/2015/0908/94/0a07e7be74cf21cfae55418ef1292b94.jpg

http://i69.fastpic.ru/big/2015/0908/00/6261a5b349d8b9f018e00f1d39fa2d00.jpg


DOWNLOAD LINKS:
Buy Premium To Support Me & Get Resumable Support & Max Speed


Links are Interchangeable - No Password - Single Extraction

National Geographic - Shark Survivors: USA (2015) Fast Download


Ad2

 
 
 
Dear visitor, you went to the site as an unregistered user. We encourage you to register or enter the site under your name.
 
   
 
 (Votes #: 0)