2013Zone For Latest Downloads

 
     
 
Legal Downloads » TV Shows » PBS - A Few Good Pie Places (2015)
Menu
Home Applications
Games Movies
Music TV Shows
Torrents Graphics

Sitemap

RSS
 
Advanced Search
Last News
Site Info
Top Contributors:
  1    supper88 32766
  2    admin 32671
  3    Whisky 10080
  4    Shark_ 8911
  5    creativelivenew 8706
  6    whathesupa 2799
  7    candymypost 840
  8    hvnteam 629
  9    vuong87 3


Articles:
  This Hour: 0
  Today: 20
  This Month: 58
  All Time: 515616


Torrents:
  Today: 0
  Yesterday: 20
  All Time: 156702


Membership:
  Registered Today :0
  This Hour:0
  This Month:0
  Total:14
  Banned:1

{online}
{inform_torrent}
Friend:
We Recomend
Trend
Trend
Ad1

Search In Site

TV Shows : PBS - A Few Good Pie Places (2015)
 

http://i68.fastpic.ru/big/2015/0908/93/f63969767c2eeab39f537a51ba139c93.jpg
PBS - A Few Good Pie Places (2015)
HDTV | 1280x720 | .MP4/AVC @ 2945 Kbps | 56mn 11s | Audio: English AAC 115 kbps, 2 channels | Subs: English | 1.20 GiB
Genre: Documentary

"There's something tasty, often sweet, fruity and all-American about a really good piece of pie. In this delicious documentary, travel across the country to visit shops, restaurants, cafes, and even a few homes in search of some excellent crusts, crimping, fillings and flavors. PBS producer Rick Sebak (A Hot Dog Program and A Ride Along The Lincoln Highway) and his crew travel from Portland, Maine for blueberry pie to Seattle, Washington for an original Blue Hawaii pie. They find coconut cream pies outside of Pittsburgh, some truly impressive domed apple pies in northern California, and in Vermont, the women at Poorhouse Pies who keep a pie-shed well stocked so pie lovers can get baked goods at all hours. From central Virginia to western New York, people are making and selling pies that impress, and in Indiana, everyone knows and loves the official state pie, the sugar cream, even though the rest of the country hardly knows it exists. Discover these delicious treats and more in A Few Good Pie Places."

General
Complete name : PBS.A.Few.Good.Pie.Places.mp4
Format
: MPEG-4
Format profile : Base Media
Codec ID
: isom
File size
: 1.20 GiB
Duration
: 56mn 11s
Overall bit rate mode : Variable
Overall bit rate : 3 064 Kbps
Encoded date : UTC 2015-08-29 06:16:04
Tagged date
: UTC 2015-08-29 06:16:04

Video
ID : 1
Format
: AVC
Format/Info
: Advanced Video Codec
Format profile : [email protected]
Format settings, CABAC : Yes
Format settings, ReFrames : 9 frames
Codec ID
: avc1
Codec ID/Info : Advanced Video Coding
Duration
: 56mn 11s
Bit rate
: 2 945 Kbps
Maximum bit rate : 21.1 Mbps
Width
: 1 280 pixels
Height
: 720 pixels
Display aspect ratio : 16:9
Frame rate mode : Constant
Frame rate
: 29.970 fps
Color space
: YUV
Chroma subsampling

: 4:2:0
Bit depth
: 8 bits
Scan type
: Progressive
Bits/(Pixel*Frame)

: 0.107
Stream size
: 1.16 GiB (96%)
Writing library : x264 core 148 r2579 73ae2d1
Encoding settings: cabac=1 / ref=9 / deblock=1:-1:-1 / analyse=0x3:0x133 / me=umh / subme=10 / psy=1 / psy_rd=1.00:0.00 / mixed_ref=1 / me_range=24 / chroma_me=1 / trellis=2 / 8x8dct=1 / cqm=0 / deadzone=21,11 / fast_pskip=1 / chroma_qp_offset=-2 / threads=9 / lookahead_threads=1 / sliced_threads=0 / nr=0 / decimate=1 / interlaced=0 / bluray_compat=0 / constrained_intra=0 / bframes=9 / b_pyramid=2 / b_adapt=2 / b_bias=0 / direct=3 / weightb=1 / open_gop=0 / weightp=2 / keyint=360 / keyint_min=29 / scenecut=40 / intra_refresh=0 / rc_lookahead=60 / rc=crf / mbtree=1 / crf=21.0 / qcomp=0.60 / qpmin=0 / qpmax=69 / qpstep=4 / vbv_maxrate=62500 / vbv_bufsize=78125 / crf_max=0.0 / nal_hrd=none / filler=0 / ip_ratio=1.40 / aq=1:1.00
Encoded date : UTC 2015-08-29 06:09:06
Tagged date
: UTC 2015-08-29 06:17:24

Audio
ID : 2
Format
: AAC
Format/Info
: Advanced Audio Codec
Format profile : LC
Codec ID
: 40
Duration
: 56mn 11s
Bit rate mode : Variable
Bit rate
: 115 Kbps
Maximum bit rate : 182 Kbps
Channel(s)
: 2 channels
Channel positions: Front: L R
Sampling rate : 48.0 KHz
Compression mode : Lossy
Stream size
: 46.2 MiB (4%)
Language
: English
Encoded date : UTC 2015-08-29 06:03:20
Tagged date
: UTC 2015-08-29 06:17:24

Text
ID : 3
Format
: Timed Text
Codec ID
: tx3g
Duration
: 56mn 10s
Bit rate mode : Variable
Bit rate
: 166 bps
Stream size
: 68.4 KiB (0%)
Language
: English
Encoded date : UTC 2015-08-29 06:17:24
Tagged date
: UTC 2015-08-29 06:17:24

Screenshots:

http://i65.fastpic.ru/big/2015/0908/32/2348c1dab61894a5d4a4225e61283032.jpg

http://i69.fastpic.ru/big/2015/0908/86/91b46dda560d5735a8f9fd9895b1df86.jpg

http://i69.fastpic.ru/big/2015/0908/28/83379d7c7c98c8a879366a1e64624628.jpg

http://i69.fastpic.ru/big/2015/0908/e7/bd64bd8acb090af8dded4a95ab73cce7.jpg


DOWNLOAD LINKS:
Buy Premium To Support Me & Get Resumable Support & Max Speed


Links are Interchangeable - No Password - Single Extraction

PBS - A Few Good Pie Places (2015) Fast Download


Ad2

 
 
 
Dear visitor, you went to the site as an unregistered user. We encourage you to register or enter the site under your name.
 
   
 
 (Votes #: 0)