2013Zone For Latest Downloads

 
     
 
Legal Downloads » Music » Kenso - Ha-Re-Ki (2003)
Menu
Home Applications
Games Movies
Music TV Shows
Torrents Graphics

Sitemap

RSS
 
Advanced Search
Last News
Site Info
Top Contributors:
  1    supper88 32766
  2    admin 32693
  3    Whisky 10080
  4    Shark_ 8911
  5    creativelivenew 8706
  6    whathesupa 2799
  7    candymypost 840
  8    hvnteam 629
  9    vuong87 3


Articles:
  This Hour: 0
  Today: 0
  This Month: 0
  All Time: 515561


Torrents:
  Today: 0
  Yesterday: 0
  All Time: 156684


Membership:
  Registered Today :0
  This Hour:0
  This Month:0
  Total:14
  Banned:1

{online}
{inform_torrent}
Friend:
We Recomend
Trend
Trend
Ad1

Search In Site

Music : Kenso - Ha-Re-Ki (2003)
 
http://i70.fastpic.ru/big/2015/0906/c4/2f485dae72d32758dc9387a67faba0c4.jpg

Kenso - Ha-Re-Ki (2003)
DVD9 | MPEG-2, NTSC 4:3 (720x480), 29.970 fps, ~ 7376 Kbps
LPCM 2.0, 1536 Kbps | Scans Included | ~ 7,04 Gb | RAR 5% Recovery
Progressive Rock | 01:40:56 | Pathograph #PADV-01

"Those who haven't had the good fortune of experiencing Kenso in a live setting can now have the next best thing! Beneath the beautiful cover artwork by Shinsaku Fujita lies the first DVD release by the Japanese progressive fusion quintet: Ha-re-ki, a full concert in excess of 100 minutes that features choice cuts from the band's twenty-five year recording history. Recorded in the summer of 2002 at On Air East, the six-camera shoot provides nearly every practical angle possible; this allows for horizontal and vertical split-screen viewpoints, sometimes moving up to three and even four splits to emphasize call-and-response & unison lines..."

Prog Archives | Discogs | All Music
***************

http://i70.fastpic.ru/big/2015/0906/c4/0833c3ae8e385719002c49ec8a6070c4.jpg

Track List:

01. Introduction
02. Festivity
03. Fist of Fury
04. The Cunning Madrigal
05. Prelude to Concealment
06. Bifuka
07. Hyoto
08. Let Us Go With The Child Who Makes Wishes Come True
09. Gessha-Senko (Boating in the Moonlight)
10. Keyboard solo [Mitsuda]
11. Echi dal Foro Romano
12. A Grim Diary
13. Les Phases de la Lune II
14. The Ancient in My Brain
15. Mediterranean and Aryan
16. Sora Ni Hikaru (Shining in the Sky)
17. GIPS
18. Good Days, Bad Days
19. The Daughter of a Recluse
20. Amalgamation of Self and Others [solo piano: Shimizu]

Line-up:

Yoshihisa Shimizu guitars
Kenichi Mitsuda keyboards
Kenichi Oguchi keyboards
Shunji Saegusa bass
Masayuki Muraishi drums
Guest: Keiko Kawashima vocal

General
Complete name : C:\_000\KENSO - HA-RE-KI (2003) DVD9\VIDEO_TS\VTS_01_1.VOB
Format
: MPEG-PS
File size
: 1 024 MiB
Duration
: 15mn 44s
Overall bit rate mode : Variable
Overall bit rate : 9 093 Kbps

Video
ID : 224 (0xE0)
Format
: MPEG Video
Format version : Version 2
Format profile : [email protected]
Format settings, BVOP : Yes
Format settings, Matrix : Custom
Format settings, GOP : Variable
Format settings, picture structure : Frame
Duration
: 15mn 44s
Bit rate mode : Variable
Bit rate
: 7 376 Kbps
Maximum bit rate : 9 800 Kbps
Width
: 720 pixels
Height
: 480 pixels
Display aspect ratio : 4:3
Frame rate
: 29.970 fps
Standard
: NTSC
Color space
: YUV
Chroma subsampling

: 4:2:0
Bit depth
: 8 bits
Scan type
: Interlaced
Scan order
: Top Field First
Compression mode : Lossy
Bits/(Pixel*Frame)

: 0.712
Time code of first frame : 00:02:00:01
Time code source : Group of pictures header
GOP, Open/Closed : Open
Stream size
: 831 MiB (81%)
GOP, Open/Closed of first frame : Closed

Audio
ID : 189 (0xBD)-160 (0xA0)
Format
: PCM
Format settings, Endianness : Big
Format settings, Sign : Signed
Muxing mode
: DVD-Video
Duration
: 15mn 44s
Bit rate mode : Constant
Bit rate
: 1 536 Kbps
Channel(s)
: 2 channels
Sampling rate : 48.0 KHz
Bit depth
: 16 bits
Stream size
: 173 MiB (17%)

Menu

General
Complete name : C:\_000\KENSO - HA-RE-KI (2003) DVD9\VIDEO_TS\VTS_01_2.VOB
Format
: MPEG-PS
File size
: 1 024 MiB
Duration
: 15mn 14s
Overall bit rate mode : Variable
Overall bit rate : 9 392 Kbps

Video
ID : 224 (0xE0)
Format
: MPEG Video
Format version : Version 2
Format profile : [email protected]
Format settings, BVOP : Yes
Format settings, Matrix : Custom
Format settings, GOP : M=3, N=15
Format settings, picture structure : Frame
Duration
: 15mn 14s
Bit rate mode : Variable
Bit rate
: 7 669 Kbps
Maximum bit rate : 9 800 Kbps
Width
: 720 pixels
Height
: 480 pixels
Display aspect ratio : 4:3
Frame rate
: 29.970 fps
Standard
: NTSC
Color space
: YUV
Chroma subsampling

: 4:2:0
Bit depth
: 8 bits
Scan type
: Interlaced
Scan order
: Top Field First
Compression mode : Lossy
Bits/(Pixel*Frame)

: 0.740
Time code of first frame : 00:17:43:20
Time code source : Group of pictures header
GOP, Open/Closed : Open
Stream size
: 836 MiB (82%)

Audio
ID : 189 (0xBD)-160 (0xA0)
Format
: PCM
Format settings, Endianness : Big
Format settings, Sign : Signed
Muxing mode
: DVD-Video
Duration
: 15mn 14s
Bit rate mode : Constant
Bit rate
: 1 536 Kbps
Channel(s)
: 2 channels
Sampling rate : 48.0 KHz
Bit depth
: 16 bits
Delay relative to video : -332ms
Stream size
: 167 MiB (16%)

Menu

General
Complete name : C:\_000\KENSO - HA-RE-KI (2003) DVD9\VIDEO_TS\VTS_01_3.VOB
Format
: MPEG-PS
File size
: 1 024 MiB
Duration
: 15mn 26s
Overall bit rate mode : Variable
Overall bit rate : 9 266 Kbps

Video
ID : 224 (0xE0)
Format
: MPEG Video
Format version : Version 2
Format profile : [email protected]
Format settings, BVOP : Yes
Format settings, Matrix : Custom
Format settings, GOP : M=3, N=15
Format settings, picture structure : Frame
Duration
: 15mn 26s
Bit rate mode : Variable
Bit rate
: 7 546 Kbps
Maximum bit rate : 9 800 Kbps
Width
: 720 pixels
Height
: 480 pixels
Display aspect ratio : 4:3
Frame rate
: 29.970 fps
Standard
: NTSC
Color space
: YUV
Chroma subsampling

: 4:2:0
Bit depth
: 8 bits
Scan type
: Interlaced
Scan order
: Top Field First
Compression mode : Lossy
Bits/(Pixel*Frame)

: 0.729
Time code of first frame : 00:32:57:02
Time code source : Group of pictures header
GOP, Open/Closed : Open
Stream size
: 833 MiB (81%)

Audio
ID : 189 (0xBD)-160 (0xA0)
Format
: PCM
Format settings, Endianness : Big
Format settings, Sign : Signed
Muxing mode
: DVD-Video
Duration
: 15mn 26s
Bit rate mode : Constant
Bit rate
: 1 536 Kbps
Channel(s)
: 2 channels
Sampling rate : 48.0 KHz
Bit depth
: 16 bits
Delay relative to video : -327ms
Stream size
: 170 MiB (17%)

Menu

General
Complete name : C:\_000\KENSO - HA-RE-KI (2003) DVD9\VIDEO_TS\VTS_01_4.VOB
Format
: MPEG-PS
File size
: 1 024 MiB
Duration
: 9mn 37s
Overall bit rate mode : Variable
Overall bit rate : 14.9 Mbps

Video
ID : 224 (0xE0)
Format
: MPEG Video
Format version : Version 2
Format profile : [email protected]
Format settings, BVOP : Yes
Format settings, Matrix : Custom
Format settings, GOP : M=3, N=15
Format settings, picture structure : Frame
Duration
: 9mn 37s
Bit rate mode : Variable
Bit rate
: 13.0 Mbps
Maximum bit rate : 9 800 Kbps
Width
: 720 pixels
Height
: 480 pixels
Display aspect ratio : 4:3
Frame rate
: 29.970 fps
Standard
: NTSC
Color space
: YUV
Chroma subsampling

: 4:2:0
Bit depth
: 8 bits
Scan type
: Interlaced
Scan order
: Top Field First
Compression mode : Lossy
Bits/(Pixel*Frame)

: 1.260
Time code of first frame : 00:48:22:22
Time code source : Group of pictures header
GOP, Open/Closed : Open
Stream size
: 898 MiB (88%)

Audio
ID : 189 (0xBD)-160 (0xA0)
Format
: PCM
Format settings, Endianness : Big
Format settings, Sign : Signed
Muxing mode
: DVD-Video
Duration
: 9mn 37s
Bit rate mode : Constant
Bit rate
: 1 536 Kbps
Channel(s)
: 2 channels
Sampling rate : 48.0 KHz
Bit depth
: 16 bits
Delay relative to video : -324ms
Stream size
: 106 MiB (10%)

Menu

General
Complete name : C:\_000\KENSO - HA-RE-KI (2003) DVD9\VIDEO_TS\VTS_01_5.VOB
Format
: MPEG-PS
File size
: 1 024 MiB
Duration
: 15mn 48s
Overall bit rate mode : Variable
Overall bit rate : 9 050 Kbps

Video
ID : 224 (0xE0)
Format
: MPEG Video
Format version : Version 2
Format profile : [email protected]
Format settings, BVOP : Yes
Format settings, Matrix : Custom
Format settings, GOP : Variable
Format settings, picture structure : Frame
Duration
: 15mn 48s
Bit rate mode : Variable
Bit rate
: 7 334 Kbps
Maximum bit rate : 9 800 Kbps
Width
: 720 pixels
Height
: 480 pixels
Display aspect ratio : 4:3
Frame rate
: 29.970 fps
Standard
: NTSC
Color space
: YUV
Chroma subsampling

: 4:2:0
Bit depth
: 8 bits
Scan type
: Interlaced
Scan order
: Top Field First
Compression mode : Lossy
Bits/(Pixel*Frame)

: 0.708
Time code of first frame : 00:57:59:13
Time code source : Group of pictures header
Stream size
: 829 MiB (81%)

Audio
ID : 189 (0xBD)-160 (0xA0)
Format
: PCM
Format settings, Endianness : Big
Format settings, Sign : Signed
Muxing mode
: DVD-Video
Duration
: 15mn 48s
Bit rate mode : Constant
Bit rate
: 1 536 Kbps
Channel(s)
: 2 channels
Sampling rate : 48.0 KHz
Bit depth
: 16 bits
Delay relative to video : -329ms
Stream size
: 174 MiB (17%)

Menu

General
Complete name : C:\_000\KENSO - HA-RE-KI (2003) DVD9\VIDEO_TS\VTS_01_6.VOB
Format
: MPEG-PS
File size
: 1 024 MiB
Duration
: 16mn 21s
Overall bit rate mode : Variable
Overall bit rate : 8 747 Kbps

Video
ID : 224 (0xE0)
Format
: MPEG Video
Format version : Version 2
Format profile : [email protected]
Format settings, BVOP : Yes
Format settings, Matrix : Custom
Format settings, GOP : Variable
Format settings, picture structure : Frame
Duration
: 16mn 21s
Bit rate mode : Variable
Bit rate
: 7 037 Kbps
Maximum bit rate : 9 800 Kbps
Width
: 720 pixels
Height
: 480 pixels
Display aspect ratio : 4:3
Frame rate
: 29.970 fps
Standard
: NTSC
Color space
: YUV
Chroma subsampling

: 4:2:0
Bit depth
: 8 bits
Scan type
: Interlaced
Scan order
: Top Field First
Compression mode : Lossy
Bits/(Pixel*Frame)

: 0.679
Time code of first frame : 01:13:47:06
Time code source : Group of pictures header
Stream size
: 823 MiB (80%)

Audio
ID : 189 (0xBD)-160 (0xA0)
Format
: PCM
Format settings, Endianness : Big
Format settings, Sign : Signed
Muxing mode
: DVD-Video
Duration
: 16mn 21s
Bit rate mode : Constant
Bit rate
: 1 536 Kbps
Channel(s)
: 2 channels
Sampling rate : 48.0 KHz
Bit depth
: 16 bits
Delay relative to video : -329ms
Stream size
: 180 MiB (18%)

Menu

General
Complete name : C:\_000\KENSO - HA-RE-KI (2003) DVD9\VIDEO_TS\VTS_01_7.VOB
Format
: MPEG-PS
File size
: 722 MiB
Overall bit rate mode : Variable

Video
ID : 224 (0xE0)
Format
: MPEG Video
Format version : Version 2
Format profile : [email protected]
Format settings, BVOP : Yes
Format settings, Matrix : Custom
Format settings, GOP : M=3, N=15
Format settings, picture structure : Frame
Bit rate mode : Variable
Maximum bit rate : 9 800 Kbps
Width
: 720 pixels
Height
: 480 pixels
Display aspect ratio : 4:3
Frame rate
: 29.970 fps
Standard
: NTSC
Color space
: YUV
Chroma subsampling

: 4:2:0
Bit depth
: 8 bits
Scan type
: Interlaced
Scan order
: Top Field First
Compression mode : Lossy
Time code of first frame : 01:30:07:27
Time code source : Group of pictures header

Audio
ID : 189 (0xBD)-160 (0xA0)
Format
: PCM
Format settings, Endianness : Big
Format settings, Sign : Signed
Muxing mode
: DVD-Video
Bit rate mode : Constant
Bit rate
: 1 536 Kbps
Channel(s)
: 2 channels
Sampling rate : 48.0 KHz
Bit depth
: 16 bits
Delay relative to video : -329ms

http://i65.fastpic.ru/big/2015/0906/df/8f98d4e209d1f4f357676df9d72f90df.jpg

http://i72.fastpic.ru/big/2015/0906/ac/38f37b2d7073c8cc1882c8d81b0deaac.jpg

http://i66.fastpic.ru/big/2015/0906/d2/326b370b5607d3499eca01bd63cf3bd2.jpg

http://i71.fastpic.ru/big/2015/0906/ab/1dbccf162792f3f9f4485f3a4d6780ab.jpg

http://i68.fastpic.ru/big/2015/0906/7b/6a10beaed35308c73c077ae07b11f67b.jpg

http://i72.fastpic.ru/big/2015/0906/eb/377fa857af588285e9af3e9b32a1a0eb.jpg

http://i68.fastpic.ru/big/2015/0906/50/068448db00041d4d4a7585123fc0c250.jpg

http://i65.fastpic.ru/big/2015/0906/f1/e8a68eda62439b813e0068835b78b6f1.jpg

http://i72.fastpic.ru/big/2015/0906/ac/b35892aded29c9e65c513312ff8438ac.jpg

http://i66.fastpic.ru/big/2015/0906/5b/9907df6842ceb0ad42974f23fb46215b.jpg

All thanks go to tatuk


DOWNLOAD LINKS:
Buy Premium To Support Me & Get Resumable Support & Max Speed

Rapidgator.net:
37etu.K.HRK.2003.part01.rar.html
37etu.K.HRK.2003.part02.rar.html
37etu.K.HRK.2003.part03.rar.html
37etu.K.HRK.2003.part04.rar.html
37etu.K.HRK.2003.part05.rar.html
37etu.K.HRK.2003.part06.rar.html
37etu.K.HRK.2003.part07.rar.html
37etu.K.HRK.2003.part08.rar.html
37etu.K.HRK.2003.part09.rar.html
37etu.K.HRK.2003.part10.rar.html
37etu.K.HRK.2003.part11.rar.html
37etu.K.HRK.2003.part12.rar.html
37etu.K.HRK.2003.part13.rar.html
37etu.K.HRK.2003.part14.rar.html

Uploaded.net:
37etu.K.HRK.2003.part01.rar
37etu.K.HRK.2003.part02.rar
37etu.K.HRK.2003.part03.rar
37etu.K.HRK.2003.part04.rar
37etu.K.HRK.2003.part05.rar
37etu.K.HRK.2003.part06.rar
37etu.K.HRK.2003.part07.rar
37etu.K.HRK.2003.part08.rar
37etu.K.HRK.2003.part09.rar
37etu.K.HRK.2003.part10.rar
37etu.K.HRK.2003.part11.rar
37etu.K.HRK.2003.part12.rar
37etu.K.HRK.2003.part13.rar
37etu.K.HRK.2003.part14.rar

Nitroflare.com
37etu.K.HRK.2003.part01.rar
37etu.K.HRK.2003.part02.rar
37etu.K.HRK.2003.part03.rar
37etu.K.HRK.2003.part04.rar
37etu.K.HRK.2003.part05.rar
37etu.K.HRK.2003.part06.rar
37etu.K.HRK.2003.part07.rar
37etu.K.HRK.2003.part08.rar
37etu.K.HRK.2003.part09.rar
37etu.K.HRK.2003.part10.rar
37etu.K.HRK.2003.part11.rar
37etu.K.HRK.2003.part12.rar
37etu.K.HRK.2003.part13.rar
37etu.K.HRK.2003.part14.rar

Uploadable.ch:
37etu.K.HRK.2003.part01.rar
37etu.K.HRK.2003.part02.rar
37etu.K.HRK.2003.part03.rar
37etu.K.HRK.2003.part04.rar
37etu.K.HRK.2003.part05.rar
37etu.K.HRK.2003.part06.rar
37etu.K.HRK.2003.part07.rar
37etu.K.HRK.2003.part08.rar
37etu.K.HRK.2003.part09.rar
37etu.K.HRK.2003.part10.rar
37etu.K.HRK.2003.part11.rar
37etu.K.HRK.2003.part12.rar
37etu.K.HRK.2003.part13.rar
37etu.K.HRK.2003.part14.rar

Links are Interchangeable - No Password - Single Extraction

Kenso - Ha-Re-Ki (2003) Fast Download


Ad2

 
 
 
Dear visitor, you went to the site as an unregistered user. We encourage you to register or enter the site under your name.
 
   
 
 (Votes #: 0)