2013Zone For Latest Downloads

 
     
 
Legal Downloads » TV Shows » CBC - Doc Zone: Chasing the Royals (2015)
Menu
Home Applications
Games Movies
Music TV Shows
Torrents Graphics

Sitemap

RSS
 
Advanced Search
Last News
Site Info
Top Contributors:
  1    supper88 32766
  2    admin 32693
  3    Whisky 10080
  4    Shark_ 8911
  5    creativelivenew 8706
  6    whathesupa 2799
  7    candymypost 840
  8    hvnteam 629
  9    vuong87 3


Articles:
  This Hour: 0
  Today: 0
  This Month: 10
  All Time: 515561


Torrents:
  Today: 0
  Yesterday: 0
  All Time: 156684


Membership:
  Registered Today :0
  This Hour:0
  This Month:0
  Total:14
  Banned:1

{online}
{inform_torrent}
Friend:
We Recomend
Trend
Trend
Ad1

Search In Site

TV Shows : CBC - Doc Zone: Chasing the Royals (2015)
 

http://i68.fastpic.ru/big/2015/0908/77/634a49518f8e16be9fe505341324e177.jpg
CBC - Doc Zone: Chasing the Royals (2015)
HDTV | 1280x720 | .MKV/AVC @ 4586 Kbps | 44mn 25s | Audio: English AC3 384 kbps, 6 channels | Subs: None | 1.57 GiB
Genre: Documentary

"As wedding frenzy strikes, a look inside the schemes and strategies used by the tabloids in their endless quest for a royal scoop."

General
Unique ID
: 243877203878765803152502764694916396416 (0xB7790A7D087D1D26AFFA7558C6597580)
Complete name : Doc.Zone.Chasing.The.Royals.mkv
Format
: Matroska
Format version : Version 4 / Version 2
File size
: 1.57 GiB
Duration
: 44mn 25s
Overall bit rate : 5 070 Kbps

Video
ID : 1
Format
: AVC
Format/Info
: Advanced Video Codec
Format profile : [email protected]
Format settings, CABAC : Yes
Format settings, ReFrames : 5 frames
Codec ID
: V_MPEG4/ISO/AVC
Duration
: 44mn 25s
Bit rate
: 4 586 Kbps
Width
: 1 280 pixels
Height
: 720 pixels
Display aspect ratio : 16:9
Frame rate mode : Constant
Frame rate
: 29.970 fps
Color space
: YUV
Chroma subsampling

: 4:2:0
Bit depth
: 8 bits
Scan type
: Progressive
Bits/(Pixel*Frame)

: 0.166
Stream size
: 1.42 GiB (90%)
Writing library : x264 core 148 r2597 e86f3a1
Encoding settings: opencl=1 / cabac=1 / ref=5 / deblock=1:0:0 / analyse=0x3:0x113 / me=umh / subme=8 / psy=1 / psy_rd=1.00:0.00 / mixed_ref=1 / me_range=16 / chroma_me=1 / trellis=1 / 8x8dct=1 / cqm=0 / deadzone=21,11 / fast_pskip=1 / chroma_qp_offset=-2 / threads=22 / lookahead_threads=3 / sliced_threads=0 / nr=0 / decimate=1 / interlaced=0 / bluray_compat=0 / constrained_intra=0 / bframes=3 / b_pyramid=2 / b_adapt=2 / b_bias=0 / direct=3 / weightb=1 / open_gop=0 / weightp=2 / keyint=250 / keyint_min=25 / scenecut=40 / intra_refresh=0 / rc_lookahead=50 / rc=crf / mbtree=1 / crf=20.0 / qcomp=0.60 / qpmin=0 / qpmax=69 / qpstep=4 / ip_ratio=1.40 / aq=1:1.00
Language
: English
Default
: Yes
Forced
: No
Color range
: Limited
Matrix coefficients

: BT.709
DURATION
: 00:44:25.796000000
NUMBER_OF_FRAMES : 79894
NUMBER_OF_BYTES : 1560907920
_STATISTICS_WRITING_APP : mkvmerge v7.2.0 ('On Every Street') 64bit built on Sep 13 2014 15:52:10
_STATISTICS_WRITING_DATE_UTC : 2015-09-06 00:19:07
_STATISTICS_TAGS : BPS DURATION NUMBER_OF_FRAMES NUMBER_OF_BYTES

Audio
ID : 2
Format
: AC-3
Format/Info
: Audio Coding 3
Mode extension : CM (complete main)
Format settings, Endianness : Big
Codec ID
: A_AC3
Duration
: 44mn 25s
Bit rate mode : Constant
Bit rate
: 384 Kbps
Channel(s)
: 6 channels
Channel positions: Front: L C R, Side: L R, LFE
Sampling rate : 48.0 KHz
Compression mode : Lossy
Stream size
: 122 MiB (8%)
Default
: Yes
Forced
: No

Screenshots:

http://i65.fastpic.ru/big/2015/0908/2b/c97d0ad7b7227c5141dc368b95424e2b.jpg

http://i65.fastpic.ru/big/2015/0908/f4/34600d834836bf72870ff9ab151333f4.jpg

http://i69.fastpic.ru/big/2015/0908/2b/be300d67c7963d877a9f3ef6b98cb62b.jpg

http://i68.fastpic.ru/big/2015/0908/39/fd91c37f7b5333e0a027366e6e0de239.jpg


DOWNLOAD LINKS:
Buy Premium To Support Me & Get Resumable Support & Max Speed


Links are Interchangeable - No Password - Single Extraction

CBC - Doc Zone: Chasing the Royals (2015) Fast Download


Ad2

 
 
 
Dear visitor, you went to the site as an unregistered user. We encourage you to register or enter the site under your name.
 
   
 
 (Votes #: 0)