2013Zone For Latest Downloads

 
     
 
Legal Downloads » Music » The Delevantes - Long About That Time (1995)
Menu
Home Applications
Games Movies
Music TV Shows
Torrents Graphics

Sitemap

RSS
 
Advanced Search
Last News
Site Info
Top Contributors:
  1    supper88 32766
  2    admin 32693
  3    Whisky 10080
  4    Shark_ 8911
  5    creativelivenew 8706
  6    whathesupa 2799
  7    candymypost 840
  8    hvnteam 629
  9    vuong87 3


Articles:
  This Hour: 0
  Today: 0
  This Month: 62
  All Time: 515562


Torrents:
  Today: 0
  Yesterday: 0
  All Time: 156685


Membership:
  Registered Today :0
  This Hour:0
  This Month:0
  Total:14
  Banned:1

{online}
{inform_torrent}
Friend:
We Recomend
Trend
Trend
XsAd

Search In Site

Music : The Delevantes - Long About That Time (1995)
 
http://i72.fastpic.ru/big/2015/0910/94/357fcbae580e0f1863ad430f3c870694.jpg

The Delevantes - Long About That Time (1995)
EAC Rip | FLAC (tracks & cue & log) | 282 MB | MP3 CBR 320 kbps | 97 MB | Artwork (PNG 600 dpi) | 205 MB | 42:31
Genre: Folk Rock / Country Rock / Pop Rock | Country: USA | Label: Rounder Records | CD 9041

"As it turns out, New Jersey working-class angst doesn't have to come out sounding like Bruce Springsteen; not only do Bob and Mike Delevante look like genuine Middle American heartland country-rockers (what with Mike's Danelectro and Bob's bowling shirt), they sound like the genuine article, too (what with Mike's pedal steel licks and Bob's overpronounced Rs). Maybe you think boys from a nice Italian family have no business writing songs with titles like "I Wish I Were a Cowboy" and "Pocketful of Diamonds." If so, here are two words for you: Joe Val. If not, then you'll have no problem with the fact that this album was recorded in Nashville with E Street Band bassist Garry Tallent behind the board, and you'll be prepared for some truly winsome songwriting and singing from a musical team whose sweet harmonies and better than average lyrics will make you feel like you're 20 years old, unemployed, and in love all over again."

http://i67.fastpic.ru/big/2015/0910/0e/cb7c00277e9ee7b014bf8f66d995b40e.jpg

discogs
allmusic


Tracklist:

01 Long About That Time
02 Little Bit Of Heaven
03 Driving At Night
04 I Wish I Were A Cowboy
05 Pocketful Of Diamonds
06 Big Love
07 Blessing In Disguise
08 Change Of Heart
09 She Thinks He Hung The Moon
10 In Way Over My Head
11 Pony Boy
12 It's A Living

Exact Audio Copy V1.0 beta 3 from 29. August 2011

EAC extraction logfile from 4. September 2015, 18:47

The Delevantes / Long About That Time

Used drive : hp DVD A DH16ABSH Adapter: 0 ID: 0

Read mode : Secure
Utilize accurate stream : Yes
Defeat audio cache : Yes
Make use of C2 pointers : No

Read offset correction

: 6
Overread into Lead-In and Lead-Out : No
Fill up missing offset samples with silence : Yes
Delete leading and trailing silent blocks : No
Null samples used in CRC calculations : Yes
Used interface
: Native Win32 interface for Win NT & 2000
Gap handling
: Appended to previous track

Used output format : User Defined Encoder
Selected bitrate : 896 kBit/s
Quality : High
Add ID3 tag : No
Command line compressor : C:\Program Files (x86)\Exact Audio Copy\Flac\flac.exe
Additional command line options : -8 -V -T "ARTIST=%artist%" -T "TITLE=%title%" -T "ALBUM=%albumtitle%" -T "DATE=%year%" -T "TRACKNUMBER=%tracknr%" -T "TOTALTRACKS=%numtracks%" -T "GENRE=%genre%" -T "ALBUMARTIST=%albumartist%" -T "ALBUM ARTIST=%albumartist%" -T "COMMENT=EAC Secure Mode, Test & Copy, AccurateRip, FLAC -8" %source%

TOC of the extracted CD Track | Start | Length | Start sector | End sector
--1 | 0:00.00 | 3:20.67 | 0 | 15066 2 | 3:20.67 | 2:31.33 | 15067 | 26424 3 | 5:52.25 | 3:51.37 | 26425 | 43786 4 | 9:43.62 | 4:20.00 | 43787 | 63286 5 | 14:03.62 | 4:14.53 | 63287 | 82389 6 | 18:18.40 | 3:29.55 | 82390 | 98119 7 | 21:48.20 | 3:38.35 | 98120 | 114504 8 | 25:26.55 | 3:10.07 | 114505 | 128761 9 | 28:36.62 | 5:11.43 | 128762 | 152129
10 | 33:48.30 | 2:53.65 | 152130 | 165169
11 | 36:42.20 | 3:21.17 | 165170 | 180261
12 | 40:03.37 | 2:27.28 | 180262 | 191314

Track 1 Filename C:\EAC\The Delevantes - Long About That Time (1995) [FLAC] {Rounder Records CD 9041}\01 - Long About That Time.wav Pre-gap length 0:00:02.00 Peak level 100.0 %
Extraction speed 3.7 X
Track quality 100.0 %
Test CRC 67BD83F1
Copy CRC 67BD83F1
Accurately ripped (confidence 4) 46F91CD (AR v1)
Copy OK

Track 2 Filename C:\EAC\The Delevantes - Long About That Time (1995) [FLAC] {Rounder Records CD 9041}\02 - Little Bit Of Heaven.wav Peak level 100.0 %
Extraction speed 3.8 X
Track quality 100.0 %
Test CRC B9E4AF4E
Copy CRC B9E4AF4E
Accurately ripped (confidence 4) [24E45E68] (AR v1)
Copy OK

Track 3 Filename C:\EAC\The Delevantes - Long About That Time (1995) [FLAC] {Rounder Records CD 9041}\03 - Driving At Night.wav Peak level 100.0 %
Extraction speed 4.4 X
Track quality 100.0 %
Test CRC 07BAB600
Copy CRC 07BAB600
Accurately ripped (confidence 4) [E8EAC218] (AR v1)
Copy OK

Track 4 Filename C:\EAC\The Delevantes - Long About That Time (1995) [FLAC] {Rounder Records CD 9041}\04 - I Wish I Were A Cowboy.wav Pre-gap length 0:00:02.05 Peak level 100.0 %
Extraction speed 4.8 X
Track quality 100.0 %
Test CRC 1FFC1F5E
Copy CRC 1FFC1F5E
Accurately ripped (confidence 4) [83B501D6] (AR v1)
Copy OK

Track 5 Filename C:\EAC\The Delevantes - Long About That Time (1995) [FLAC] {Rounder Records CD 9041}\05 - Pocketful Of Diamonds.wav Pre-gap length 0:00:00.30 Peak level 100.0 %
Extraction speed 5.1 X
Track quality 100.0 %
Test CRC EC126C83
Copy CRC EC126C83
Accurately ripped (confidence 4) [DDEBB122] (AR v1)
Copy OK

Track 6 Filename C:\EAC\The Delevantes - Long About That Time (1995) [FLAC] {Rounder Records CD 9041}\06 - Big Love.wav Peak level 100.0 %
Extraction speed 5.2 X
Track quality 100.0 %
Test CRC 5247EFD4
Copy CRC 5247EFD4
Accurately ripped (confidence 4) [71CD7A0D] (AR v1)
Copy OK

Track 7 Filename C:\EAC\The Delevantes - Long About That Time (1995) [FLAC] {Rounder Records CD 9041}\07 - Blessing In Disguise.wav Peak level 100.0 %
Extraction speed 4.3 X
Track quality 99.9 %
Test CRC E7823609
Copy CRC E7823609
Accurately ripped (confidence 4) [637F53E5] (AR v1)
Copy OK

Track 8 Filename C:\EAC\The Delevantes - Long About That Time (1995) [FLAC] {Rounder Records CD 9041}\08 - Change Of Heart.wav Peak level 99.9 %
Extraction speed 5.5 X
Track quality 100.0 %
Test CRC E1477E44
Copy CRC E1477E44
Accurately ripped (confidence 4) [99D2A06E] (AR v1)
Copy OK

Track 9 Filename C:\EAC\The Delevantes - Long About That Time (1995) [FLAC] {Rounder Records CD 9041}\09 - She Thinks He Hung The Moon.wav Peak level 100.0 %
Extraction speed 6.3 X
Track quality 100.0 %
Test CRC 863675FC
Copy CRC 863675FC
Accurately ripped (confidence 4) [C432733F] (AR v1)
Copy OK

Track 10 Filename C:\EAC\The Delevantes - Long About That Time (1995) [FLAC] {Rounder Records CD 9041}\10 - In Way Over My Head.wav Pre-gap length 0:00:00.68 Peak level 100.0 %
Extraction speed 5.9 X
Track quality 100.0 %
Test CRC 16F2133F
Copy CRC 16F2133F
Accurately ripped (confidence 4) [A773D575] (AR v1)
Copy OK

Track 11 Filename C:\EAC\The Delevantes - Long About That Time (1995) [FLAC] {Rounder Records CD 9041}\11 - Pony Boy.wav Pre-gap length 0:00:00.55 Peak level 99.9 %
Extraction speed 6.3 X
Track quality 100.0 %
Test CRC 3620E7C1
Copy CRC 3620E7C1
Accurately ripped (confidence 4) [78D45601] (AR v1)
Copy OK

Track 12 Filename C:\EAC\The Delevantes - Long About That Time (1995) [FLAC] {Rounder Records CD 9041}\12 - It's A Living.wav Pre-gap length 0:00:00.72 Peak level 97.3 %
Extraction speed 4.3 X
Track quality 99.9 %
Test CRC 58AB89EC
Copy CRC 58AB89EC
Accurately ripped (confidence 4) [78D52DC6] (AR v1)
Copy OK

All tracks accurately ripped

No errors occurred

End of status report

==== Log checksum 1383D8618226FB719D3EDF9AB59F5178150F55B4353CD1FD05146EF924EA10E6 ====

Personnel

Bass - Garry Tallent
Drums, Percussion - Mike Porter
Piano, Organ - Benmont Tench
Steel Guitar - John Noreen
Vocals, Acoustic Guitar, Harmonica, Percussion - Bob Delevante
Vocals, Electric Guitar , Bass , - Mike Delevante

All thanks to original releaser

http://i70.fastpic.ru/big/2015/0910/95/0a3f9ebf45dc4f1e87213f0c586e5395.jpg


DOWNLOAD LINKS:
Buy Premium To Support Me & Get Resumable Support & Max Speed


Links are Interchangeable - No Password - Single Extraction

The Delevantes - Long About That Time (1995) Fast Download


XsAd2

 
 
 
Dear visitor, you went to the site as an unregistered user. We encourage you to register or enter the site under your name.
 
   
 
 (Votes #: 0)