2013Zone For Latest Downloads

 
     
 
Legal Downloads » Music » Gidon Kremer & Kremerata Baltica - The Art Of Instrumentation: Homage To Glenn Gould (2012)
Menu
Home Applications
Games Movies
Music TV Shows
Torrents Graphics

Sitemap

RSS
 
Advanced Search
Last News
Site Info
Top Contributors:
  1    supper88 32766
  2    admin 32683
  3    Whisky 10080
  4    Shark_ 8911
  5    creativelivenew 8706
  6    whathesupa 2799
  7    candymypost 840
  8    hvnteam 629
  9    vuong87 3


Articles:
  This Hour: 0
  Today: 0
  This Month: 52
  All Time: 515552


Torrents:
  Today: 0
  Yesterday: 0
  All Time: 156675


Membership:
  Registered Today :0
  This Hour:0
  This Month:0
  Total:14
  Banned:1

{online}
{inform_torrent}
Friend:
Download Nulled Scripts
Torrent Download
Trend
Trend
VPN_ad

Search In Site

Music : Gidon Kremer & Kremerata Baltica - The Art Of Instrumentation: Homage To Glenn Gould (2012)
 
http://i70.fastpic.ru/big/2015/0910/b9/25881616be40719ac3c15346704458b9.jpg

Gidon Kremer & Kremerata Baltica - The Art Of Instrumentation: Homage To Glenn Gould (2012)
EAC | FLAC | Image (Cue&Log) ~ 279 Mb (incl 5%) | Mp3 (CBR320) ~ 187 Mb (incl 5%) | Scans included
Genre: Classical | Label: Nonesuch Records | # 528982-2 | Time: 00:58:51

"Nonesuch Records releases The Art of Instrumentation: Homage to Glenn Gould, by violinist Gidon Kremer and his Kremerata Baltica chamber orchestra, on September 25, 2012, which would have been Gould's 80th birthday. The album comprises 11 pieces and arrangements by contemporary composers that quote from or are inspired by works, mostly by Bach, that Gould famously recorded during his career; two Arnold Schoenberg pieces also are drawn upon in one piece."

"The release of this collection has clearly been timed to coincide with what would have been Glenn Gould's 80th birthday on 25 September and the 20th anniversary of his death on 4 October. But its origins go back several years to a chamber-music festival in Kronberg, Germany, where Gidon Kremer and his string orchestra Kremerata Baltica were artists in residence in 2010. Kremer decided to put Bach's music at the heart of their residency and commissioned a double tribute, asking a range of composers to make string-orchestra arrangements of pieces that were part of Gould's repertory. All but one of the 11 composers involved - the Australian Carl Vine - are from eastern Europe, especially from the countries of the former Soviet Union, and while some, such as Valentin Silvestrov, Alexander Raskatov and Giya Kancheli, are well-known names, many of the others will be much less familiar.

None of the pieces is substantial - the longest lasts less than eight minutes, several are less than half as long - yet they vary enormously in their approach to Bach's originals, as no doubt Kremer hoped. Some, such as Raskatov's version of the D minor Prelude and Fugue from the first book of The Well-Tempered Clavier, or Raminta Serksnyte's reworking of the A minor Prelude and Fugue from the second book for a Brandenburg Concerto-like lineup of flute, oboe, harpsichord and strings, are straightforward expansions; others, like Vine's and Victoria Vita Poleva's, gild the originals just that little bit more. In Kancheli's Bridges to Bach, quotations from Bach become found objects in musical textures that are very much his own, while Stevan Kovacs Tickmayer takes the tribute to Gould one stage further by combining a number of the Goldberg Variations with quotations from another of the pianist's favourite composers, Schoenberg, introducing fragments of the Op 19 piano pieces and Op 47 violin-and-piano Fantasy. It could all seem supremely tacky and self-indulgent, and some of the tracks certainly are, but the best of the arrangements are extremely skilful and seriously musical, and Kremer and his superb young orchestra give them the respectful attention they deserve.

Review by Andrew Clements, TheGuardian.com
"


http://i67.fastpic.ru/big/2015/0910/a4/7c630a55bc6d7541a3bf2b12a3a447a4.jpg

Gidon Kremer at Allmusic
Gidon Kremer Website
Gidon Kremer at Wiki

MUSICIANS:

Gidon Kremer, solo violin and artistic director

Kremerata Baltica:
Violins: Eva Bindere, Sandis Steinbergs, Dzeraldas Bidva, Rasa Vosyliute-Mickuniene,
Migle Diksaitiene, Sanita Zarina, Jana Ozolina, Andrejs Golikovs, Andrei Valigura,
Agne Doveikaite, Migle Serapinaite, Monta Vermane, Lasma Taimina
Violas: Daniil Grishin, Ula Ulijona Zebriunaite, Vidas Vekerotas, Zita Zemovica
Cellos: Marta Sudraba, Eriks Kirsfelds, Giedre Dirvanauskaite, Peteris Cirksis
Double basses: Danielis Rubinas, Indrek Sarrap
Percussion: Andrei Pushkarev

Soloists:
Andrei Pushkarev, vibraphone (1, 2, 7, 9), percussion (4), marimba (9)
Dita Krenberga, flute (4, 6, 7)
Justina Gelgotaite, oboe (6, 7)
Reinut Tepp, cembalo (6, 9), piano (7)
Dzeraldas Bidva, violin (8)
Agne Doveikaite-Rubiniene, violin (8)
Daniil Grishin, viola (8)
Vidas Vekerotas, viola (8)
Giedre Dirvanauskaite, cello (8)
Peteris Cirksis, cello (8)

Recorded February 17-20, 2011, at Latvian Radio Studios, Riga, Latvia

Tracklist:

01. Valentin Silvestrov - Dedication To J.S.B. (06:03)
02. Georgs Pelecis - Aria From Goldberg Variations BWV 988 (03:07)
03. Alexander Raskatov - Prelude And Fugue In D Minor From The Well-Tempered Clavier BWV 851 (03:32)
04. Alexander Wustin - Three Voice Invention In F Minor BWV 795 (03:15)
05. Carl Vine - Slow Movement From Cembalo Concerto In F Minor BWV 1056 (05:17)
06. Raminta Serksnyte - Prelude And Fugue In A Minor From The Well-Tempered Clavier BWV 889 (04:16)
07. Giya Kancheli - Bridges To Bach (07:57)
08. Leonid Desyatnikov - Sarabande In E Minor From Partita No.6 BWV 830 (06:21)
09. Victoria Vita Poleva - Prelude And Fugue In F-Sharp Minor From The Well-Tempered Clavier BWV 883 (06:40)
10. Stevan Kovacs Tickmayer - After Gould: Goldberg Variations Nos.30, 19, 4, 18, 22, 26
& Intermezzi from Arnold Schonberg's Op.19 & Op.47 (06:00)
11. Victor Kissine - Aria From Goldberg Variations BWV 988 (06:17)


Exact Audio Copy V1.0 beta 1 from 15. November 2010

EAC extraction logfile from 13. November 2012, 21:51

Gidon Kremer & Kremerata Baltica / The Art Of Instrumentation: Homage To Glenn Gould

Used drive : Optiarc DVD RW AD-7203A Adapter: 4 ID: 1

Read mode : Secure
Utilize accurate stream : Yes
Defeat audio cache : Yes
Make use of C2 pointers : No

Read offset correction

: 48
Overread into Lead-In and Lead-Out : No
Fill up missing offset samples with silence : Yes
Delete leading and trailing silent blocks : No
Null samples used in CRC calculations : Yes
Used interface
: Native Win32 interface for Win NT & 2000

Used output format : User Defined Encoder
Selected bitrate : 128 kBit/s
Quality : High
Add ID3 tag : No
Command line compressor : C:\Program Files\FLAC\flac.exe
Additional command line options : -T "COMMENT=Ripped by GFox" -8 -V %s

TOC of the extracted CD Track | Start | Length | Start sector | End sector
--1 | 0:00.00 | 6:03.42 | 0 | 27266 2 | 6:03.42 | 3:07.14 | 27267 | 41305 3 | 9:10.56 | 3:32.57 | 41306 | 57262 4 | 12:43.38 | 3:15.61 | 57263 | 71948 5 | 15:59.24 | 5:17.36 | 71949 | 95759 6 | 21:16.60 | 4:16.17 | 95760 | 114976 7 | 25:33.02 | 7:57.39 | 114977 | 150790 8 | 33:30.41 | 6:21.39 | 150791 | 179404 9 | 39:52.05 | 6:40.63 | 179405 | 209467
10 | 46:32.68 | 6:00.29 | 209468 | 236496
11 | 52:33.22 | 6:17.26 | 236497 | 264797

Range status and errors

Selected range Filename D:\EAC\Gidon Kremer & Kremerata Baltica - The Art Of Instrumentation- Homage To Glenn Gould.wav Peak level 97.7 %
Extraction speed 0.4 X
Range quality 100.0 %
Test CRC E3739FC9
Copy CRC E3739FC9
Copy OK

No errors occurred


AccurateRip summary

Track 1 not present in database
Track 2 not present in database
Track 3 not present in database
Track 4 not present in database
Track 5 not present in database
Track 6 not present in database
Track 7 not present in database
Track 8 not present in database
Track 9 not present in database
Track 10 not present in database
Track 11 not present in database

None of the tracks are present in the AccurateRip database

End of status report

==== Log checksum AE7A68FD28E4EB210A19E30414D53C686085C78646BC98E9C2FD88F23E7F8885 ====

foobar2000 1.2 / Dynamic Range Meter 1.1.1
log date: 2015-09-08 22:24:00

Analyzed: Gidon Kremer & Kremerata Baltica / The Art Of Instrumentation: Homage To Glenn Gould

DR Peak RMS Duration Track

DR15 -5.60 dB -26.71 dB 6:04 01-Valentin Silvestrov - Dedication To J.S.B.
DR11 -8.24 dB -26.76 dB 3:07 02-Georgs Pelecis - Aria From Goldberg Variations BWV 988
DR15 -0.29 dB -22.50 dB 3:33 03-Alexander Raskatov - Prelude And Fugue In D Minor From The Well-Tempered Clavier BWV 851
DR14 -0.70 dB -23.00 dB 3:16 04-Alexander Wustin - Three Voice Invention In F Minor BWV 795
DR20 -1.96 dB -27.28 dB 5:17 05-Carl Vine - Slow Movement From Cembalo Concerto In F Minor BWV 1056
DR13 -2.61 dB -19.76 dB 4:16 06-Raminta Serksnyte - Prelude And Fugue In A Minor From The Well-Tempered Clavier BWV 889
DR20 -3.11 dB -30.37 dB 7:58 07-Giya Kancheli - Bridges To Bach
DR13 -5.80 dB -24.81 dB 6:22 08-Leonid Desyatnikov - Sarabande In E Minor From Partita No.6 BWV 830
DR13 -5.12 dB -26.02 dB 6:41 09-Victoria Vita Poleva - Prelude And Fugue In F-Sharp Minor From The Well-Tempered Clavier BWV 883
DR16 -0.20 dB -21.69 dB 6:00 10-Stevan Kovacs Tickmayer - After Gould: Goldberg Variations Nos.30, 19, 4, 18, 22, 26 & Intermezzi from Arnold Schonberg's Op.19 & Op.47
DR15 -11.43 dB -34.10 dB 6:17 11-Victor Kissine - Aria From Goldberg Variations BWV 988

Number of tracks: 11
Official DR value: DR15

Samplerate: 44100 Hz
Channels: 2
Bits per sample: 16
Bitrate: 530 kbps
Codec: FLAC

http://i69.fastpic.ru/big/2015/0910/6e/56ccc2f1075c642f727efac490d6e76e.jpg

All thanks to original releaser - GFox
Password: designol

DOWNLOAD LINKS:
Buy Premium To Support Me & Get Resumable Support & Max Speed


Links are Interchangeable - No Password - Single Extraction

Gidon Kremer & Kremerata Baltica - The Art Of Instrumentation: Homage To Glenn Gould (2012) Fast Download


Cheap VPN

 
 
 
Dear visitor, you went to the site as an unregistered user. We encourage you to register or enter the site under your name.
 
   
 
 (Votes #: 0)