2013Zone For Latest Downloads

 
     
 
Legal Downloads » Music » Jerry Goldsmith - Star Trek: The Motion Picture (1979) 3CD Expanded Limited Edition 2012
Menu
Home Applications
Games Movies
Music TV Shows
Torrents Graphics

Sitemap

RSS
 
Advanced Search
Last News
Site Info
Top Contributors:
  1    supper88 32766
  2    admin 32725
  3    Whisky 10080
  4    Shark_ 8911
  5    creativelivenew 8706
  6    whathesupa 2799
  7    candymypost 840
  8    hvnteam 629
  9    vuong87 3


Articles:
  This Hour: 0
  Today: 0
  This Month: 2
  All Time: 515495


Torrents:
  Today: 0
  Yesterday: 0
  All Time: 156680


Membership:
  Registered Today :0
  This Hour:0
  This Month:0
  Total:14
  Banned:1

{online}
{inform_torrent}
Friend:
Full Download Scripts
Torrent Download
Trend
Trend

Search In Site

Music : Jerry Goldsmith - Star Trek: The Motion Picture (1979) 3CD Expanded Limited Edition 2012
 
http://i68.fastpic.ru/big/2015/0912/0e/c63f99977246329222ed8665b3c9950e.jpg

Jerry Goldsmith - Star Trek: The Motion Picture (1979) 3CD Expanded Limited Edition 2012
EAC | FLAC | Image (Cue&Log) ~ 1.12 Gb (incl 5%) | Mp3 (CBR320) ~ 571 Mb (incl 5%) | Scans included
Genre: Soundtrack, Score | Label: La-La-Land Records | # LLLCD1207 | Time: 03:41:09

"La-La Land Records, Sony Music Entertainment and Paramount Pictures boldly go where no soundtrack reissue has gone before with this deluxe 3-CD set of 1979's STAR TREK: THE MOTION PICTURE, composed and conducted by Jerry Goldsmith. The first big screen voyage of Captain Kirk and Mr. Spock was a high budget and ambitious undertaking that introduced Goldsmith's famous and enduring Star Trek march (later used as the main theme for Star Trek: The Next Generation) as the cornerstone of an epic science fiction musical odyssey. This 3-CD set presents the score for the 1979 theatrical release (filling disc 1 and part of disc 2) and also premieres the legendary early "rejected" cues that Goldsmith recorded prior to composing his famous main theme. The 1979 album program (much of which is performed and edited differently as compared to the film) completes disc 2, with disc 3 offering additional alternates (including those heard on the previous Sony expanded release) along with a wealth of bonus material."



Tracklist:

CD1:

Film Score

01. Overture (01:43)
02. Main Title / Klingon Battle (07:01)
03. Total Logic (03:53)
04. Floating Office (01:07)
05. The Enterprise (06:01)
06. Malfunction (01:30)
07. Goodbye Klingon / Goodbye Epsilon Nine / Pre-Launch (02:10)
08. Leaving Drydock (03:32)
09. TV Theme / Warp Point Eight (00:49)
10. No Goodbyes (00:52)
11. Spock's Arrival (02:03)
12. TV Theme / Warp Point Nine (01:49)
13. Meet V'Ger (03:06)
14. The Cloud (05:04)
15. V'Ger Flyover (05:01)
16. The Force Field (05:07)
17. Micro Exam (01:13)
18. Games / Spock Walk (09:51)
19. System Inoperative (02:03)
20. Hidden Information (03:57)
21. Inner Workings (04:04):

CD2:

Film Score (continuation)

01. V'Ger Speaks (04:04)
02. The Meld / A Good Start (05:37)
03. End Title (03:15)

The Unused Early Score

04. The Enterprise [Early Version] (06:05)
05. Leaving Drydock [Early Version] (02:39)
06. No Goodbyes [Early Version] (00:54)
07. Spock's Arrival [Early Version] (01:59)
08. Micro Exam [Early Version] (01:14)
09. Games [Early Version] (03:49)
10. Inner Workings [Early Version] (04:43)

Original 1979 Soundtrack Album

11. Main Title / Klingon Battle (06:50)
12. Leaving Drydock (03:29)
13. The Cloud (04:59)
14. The Enterprise (05:59)
15. Ilia's Theme (03:00)
16. Vejur Flyover (04:56)
17. The Meld (03:15)
18. Spock Walk (04:17)
19. End Title (03:16)

CD3:

Alternates

01. Overture [Long Version] (02:50)
02. Main Title [Alternate Take] (01:43)
03. Total Logic [Alternate Take] (03:48)
04. Malfunction [Early Take] (01:28)
05. Goodbye Klingon [Alternate Take] (00:35)
06. No Goodbyes [Alternate Take] (00:53)
07. Spock's Arrival [Alternate Take] (02:00)
08. The Force Field [Alternate Take] (05:04)
09. Micro Exam [Alternate Take] (01:13)
10. Games [Early Synthesizer Version] (03:48)
11. Games [Alternate Take] (03:47)
12. Inner Workings [Alternate Take] (04:05)
13. V'Ger Speaks [Alternate Take] (04:02)
14. The Meld [Film Version] (03:16)
15. A Good Start [Discrete] (02:27)
16. Main Title [Album Take] (01:44)

Additional Music

17. Main Title [First Raw Takes] (07:20)
18. The Force Field/The Cloud [Excerpts] (02:32)
19. Beams And Synthesizer For V'Ger (04:03)
20. Beams And Synthesizer For Ilia (00:59)
21. Synthesizer For Main Theme (01:43)
22. Main Theme From Star Trek: The Motion Picture (05:23)
23. A Star Beyond Time (02:42)
24. Ilia's Theme [Alternate] (03:33)
25. Theme From Star Trek: The Motion Picture [Concert Edit] (03:25)


Exact Audio Copy V1.0 beta 3 from 29. August 2011

EAC extraction logfile from 16. March 2014, 12:30

Jerry Goldsmith / Star Trek: The Motion Picture (Disc 1)

Used drive : TSSTcorpCDDVDW SH-S202H Adapter: 0 ID: 0

Read mode : Secure
Utilize accurate stream : Yes
Defeat audio cache : Yes
Make use of C2 pointers : No

Read offset correction

: 6
Overread into Lead-In and Lead-Out : No
Fill up missing offset samples with silence : Yes
Delete leading and trailing silent blocks : No
Null samples used in CRC calculations : Yes
Used interface
: Native Win32 interface for Win NT & 2000

Used output format : Internal WAV Routines
Sample format : 44.100 Hz; 16 Bit; Stereo

TOC of the extracted CD Track | Start | Length | Start sector | End sector
--1 | 0:00.00 | 1:43.14 | 0 | 7738 2 | 1:43.14 | 7:01.06 | 7739 | 39319 3 | 8:44.20 | 3:53.64 | 39320 | 56858 4 | 12:38.09 | 1:07.55 | 56859 | 61938 5 | 13:45.64 | 6:01.57 | 61939 | 89070 6 | 19:47.46 | 1:30.19 | 89071 | 95839 7 | 21:17.65 | 2:10.13 | 95840 | 105602 8 | 23:28.03 | 3:32.22 | 105603 | 121524 9 | 27:00.25 | 0:49.40 | 121525 | 125239
10 | 27:49.65 | 0:52.54 | 125240 | 129193
11 | 28:42.44 | 2:03.31 | 129194 | 138449
12 | 30:46.00 | 1:49.29 | 138450 | 146653
13 | 32:35.29 | 3:06.04 | 146654 | 160607
14 | 35:41.33 | 5:04.62 | 160608 | 183469
15 | 40:46.20 | 5:01.30 | 183470 | 206074
16 | 45:47.50 | 5:07.34 | 206075 | 229133
17 | 50:55.09 | 1:13.21 | 229134 | 234629
18 | 52:08.30 | 9:51.23 | 234630 | 278977
19 | 61:59.53 | 2:03.11 | 278978 | 288213
20 | 64:02.64 | 3:57.48 | 288214 | 306036
21 | 68:00.37 | 4:04.19 | 306037 | 324355

Range status and errors

Selected range Filename D:\Jerry Goldsmith - Star Trek- The Motion Picture\Jerry Goldsmith - Star Trek- The Motion Picture (Disc 1).wav Peak level 100.0 %
Extraction speed 8.5 X
Range quality 100.0 %
Test CRC 2629BF95
Copy CRC 2629BF95
Copy OK

No errors occurred


AccurateRip summary

Track 1 accurately ripped (confidence 64) [738F15BF] (AR v2)
Track 2 accurately ripped (confidence 64) [AAC72ED5] (AR v2)
Track 3 accurately ripped (confidence 64) [7C9C4095] (AR v2)
Track 4 accurately ripped (confidence 63) [32D24FDA] (AR v2)
Track 5 accurately ripped (confidence 61) [4E7A2ADC] (AR v2)
Track 6 accurately ripped (confidence 64) [E690CE44] (AR v2)
Track 7 accurately ripped (confidence 62) [4646288D] (AR v2)
Track 8 accurately ripped (confidence 64) [AE1EF006] (AR v2)
Track 9 accurately ripped (confidence 64) AD1A5A6 (AR v2)
Track 10 accurately ripped (confidence 64) [3417E45E] (AR v2)
Track 11 accurately ripped (confidence 64) [84DE7BF2] (AR v2)
Track 12 accurately ripped (confidence 64) [742E6B25] (AR v2)
Track 13 accurately ripped (confidence 64) [3CFD2CAF] (AR v2)
Track 14 accurately ripped (confidence 64) [7B71C1CB] (AR v2)
Track 15 accurately ripped (confidence 64) [EC91AEA2] (AR v2)
Track 16 accurately ripped (confidence 64) [1EE288F5] (AR v2)
Track 17 accurately ripped (confidence 64) [81CDD599] (AR v2)
Track 18 accurately ripped (confidence 63) [E7E94ADC] (AR v2)
Track 19 accurately ripped (confidence 64) [6157612B] (AR v2)
Track 20 accurately ripped (confidence 64) [3D8A6565] (AR v2)
Track 21 accurately ripped (confidence 64) [CBB02276] (AR v2)

All tracks accurately ripped

End of status report

==== Log checksum AE67F42690A95BDA2F425E9BAB05A2B65E7E8A5BDEC2D80C879CEE6CB8574629 ====

foobar2000 1.2 / Dynamic Range Meter 1.1.1
log date: 2015-09-11 16:27:23

Analyzed: Alexander Courage, Fred Steiner & Jerry Goldsmith / Star Trek: The Motion Picture (Disc 1)

DR Peak RMS Duration Track

DR11 -1.92 dB -20.69 dB 0:50 09-TV Theme / Warp Point Eight
DR13 -0.41 dB -19.71 dB 1:49 12-TV Theme / Warp Point Nine

Number of tracks: 2
Official DR value: DR12

Samplerate: 44100 Hz
Channels: 2
Bits per sample: 16
Bitrate: 656 kbps
Codec: FLAC

Analyzed: Fred Steiner & Jerry Goldsmith / Star Trek: The Motion Picture (Disc 1)

DR Peak RMS Duration Track

DR12 -0.18 dB -19.02 dB 2:10 07-Goodbye Klingon / Goodbye Epsilon Nine / Pre-Launch
DR12 -0.48 dB -20.15 dB 3:06 13-Meet V'Ger
DR13 -3.92 dB -24.30 dB 3:58 20-Hidden Information

Number of tracks: 3
Official DR value: DR13

Samplerate: 44100 Hz
Channels: 2
Bits per sample: 16
Bitrate: 656 kbps
Codec: FLAC

Analyzed: Jerry Goldsmith / Star Trek: The Motion Picture (Disc 1)

DR Peak RMS Duration Track

DR12 -3.81 dB -24.04 dB 1:43 01-Overture
DR14 0.00 dB -19.23 dB 7:01 02-Main Title / Klingon Battle
DR14 -0.25 dB -20.70 dB 3:54 03-Total Logic
DR11 -0.18 dB -19.92 dB 1:08 04-Floating Office
DR13 -0.39 dB -18.09 dB 6:02 05-The Enterprise
DR12 -8.62 dB -25.21 dB 1:30 06-Malfunction
DR13 -0.09 dB -16.93 dB 3:32 08-Leaving Drydock
DR10 -6.05 dB -21.55 dB 0:53 10-No Goodbyes
DR13 -2.31 dB -20.63 dB 2:03 11-Spock's Arrival
DR13 -0.89 dB -19.20 dB 5:05 14-The Cloud
DR13 -0.78 dB -18.63 dB 5:01 15-V'Ger Flyover
DR15 -0.24 dB -22.15 dB 5:07 16-The Force Field
DR9 -7.38 dB -22.56 dB 1:13 17-Micro Exam
DR16 -0.46 dB -22.75 dB 9:51 18-Games / Spock Walk
DR11 -2.93 dB -23.36 dB 2:03 19-System Inoperative
DR15 -0.70 dB -23.01 dB 4:04 21-Inner Workings

Number of tracks: 16
Official DR value: DR13

Samplerate: 44100 Hz
Channels: 2
Bits per sample: 16
Bitrate: 656 kbps
Codec: FLAC

Exact Audio Copy V1.0 beta 3 from 29. August 2011

EAC extraction logfile from 16. March 2014, 12:52

Jerry Goldsmith / Star Trek: The Motion Picture (Disc 2)

Used drive : TSSTcorpCDDVDW SH-S202H Adapter: 0 ID: 0

Read mode : Secure
Utilize accurate stream : Yes
Defeat audio cache : Yes
Make use of C2 pointers : No

Read offset correction

: 6
Overread into Lead-In and Lead-Out : No
Fill up missing offset samples with silence : Yes
Delete leading and trailing silent blocks : No
Null samples used in CRC calculations : Yes
Used interface
: Native Win32 interface for Win NT & 2000

Used output format : Internal WAV Routines
Sample format : 44.100 Hz; 16 Bit; Stereo

TOC of the extracted CD Track | Start | Length | Start sector | End sector
--1 | 0:00.00 | 4:04.16 | 0 | 18315 2 | 4:04.16 | 5:37.03 | 18316 | 43593 3 | 9:41.19 | 3:15.74 | 43594 | 58292 4 | 12:57.18 | 6:05.20 | 58293 | 85687 5 | 19:02.38 | 2:39.15 | 85688 | 97627 6 | 21:41.53 | 0:54.60 | 97628 | 101737 7 | 22:36.38 | 1:59.71 | 101738 | 110733 8 | 24:36.34 | 1:14.63 | 110734 | 116346 9 | 25:51.22 | 3:49.33 | 116347 | 133554
10 | 29:40.55 | 4:43.30 | 133555 | 154809
11 | 34:24.10 | 6:50.12 | 154810 | 185571
12 | 41:14.22 | 3:29.25 | 185572 | 201271
13 | 44:43.47 | 4:59.56 | 201272 | 223752
14 | 49:43.28 | 5:59.27 | 223753 | 250704
15 | 55:42.55 | 3:00.53 | 250705 | 264257
16 | 58:43.33 | 4:56.27 | 264258 | 286484
17 | 63:39.60 | 3:15.24 | 286485 | 301133
18 | 66:55.09 | 4:17.36 | 301134 | 320444
19 | 71:12.45 | 3:16.37 | 320445 | 335181

Range status and errors

Selected range Filename D:\Jerry Goldsmith - Star Trek- The Motion Picture\Jerry Goldsmith - Star Trek- The Motion Picture (Disc 2).wav Peak level 99.4 %
Extraction speed 8.5 X
Range quality 99.9 %
Test CRC 1C46D2A5
Copy CRC 1C46D2A5
Copy OK

No errors occurred


AccurateRip summary

Track 1 accurately ripped (confidence 61) [908999DA] (AR v2)
Track 2 accurately ripped (confidence 61) [96190FDD] (AR v2)
Track 3 accurately ripped (confidence 61) [E23B340E] (AR v2)
Track 4 accurately ripped (confidence 58) 0C4A32A (AR v2)
Track 5 accurately ripped (confidence 58) [EB7EEB3A] (AR v2)
Track 6 accurately ripped (confidence 58) [2DA2F6BC] (AR v2)
Track 7 accurately ripped (confidence 58) 15B9023 (AR v2)
Track 8 accurately ripped (confidence 58) [3180EF28] (AR v2)
Track 9 accurately ripped (confidence 58) [3CB9CD95] (AR v2)
Track 10 accurately ripped (confidence 58) [54AAEE0A] (AR v2)
Track 11 accurately ripped (confidence 58) [5BA9341E] (AR v2)
Track 12 accurately ripped (confidence 58) [446A3F41] (AR v2)
Track 13 accurately ripped (confidence 58) [12A72ACE] (AR v2)
Track 14 accurately ripped (confidence 58) [E2EC23CB] (AR v2)
Track 15 accurately ripped (confidence 58) [6259D11A] (AR v2)
Track 16 accurately ripped (confidence 57) [E764164D] (AR v2)
Track 17 accurately ripped (confidence 58) [23C8B734] (AR v2)
Track 18 accurately ripped (confidence 58) [07A36182] (AR v2)
Track 19 accurately ripped (confidence 54) [7DDE1494] (AR v2)

All tracks accurately ripped

End of status report

==== Log checksum E475C5221AC8977020DDC2E4C269C9229CAF2C3A6E98A5AA9489D7DB3035BB7F ====

foobar2000 1.2 / Dynamic Range Meter 1.1.1
log date: 2015-09-11 16:28:07

Analyzed: Fred Steiner & Jerry Goldsmith / Star Trek: The Motion Picture (Disc 2) (1-2) Jerry Goldsmith / Star Trek: The Motion Picture (Disc 2) (3-19)

DR Peak RMS Duration Track

DR11 -4.10 dB -21.55 dB 4:04 01-V'Ger Speaks
DR13 -0.16 dB -18.70 dB 5:37 02-The Meld / A Good Start
DR13 -0.05 dB -15.94 dB 3:16 03-End Title
DR13 -0.24 dB -18.92 dB 6:05 04-The Enterprise [Early Version]
DR11 -1.01 dB -20.04 dB 2:39 05-Leaving Drydock [Early Version]
DR9 -6.99 dB -23.87 dB 0:55 06-No Goodbyes [Early Version]
DR11 -1.00 dB -18.66 dB 2:00 07-Spock's Arrival [Early Version]
DR10 -10.23 dB -24.28 dB 1:15 08-Micro Exam [Early Version]
DR13 -0.52 dB -24.88 dB 3:49 09-Games [Early Version]
DR14 -0.25 dB -22.71 dB 4:43 10-Inner Workings [Early Version]
DR14 -0.28 dB -21.74 dB 6:50 11-Main Title / Klingon Battle
DR13 -1.39 dB -19.92 dB 3:29 12-Leaving Drydock
DR11 -7.52 dB -24.63 dB 5:00 13-The Cloud
DR14 -0.73 dB -22.30 dB 5:59 14-The Enterprise
DR11 -1.04 dB -19.09 dB 3:01 15-Ilia's Theme
DR13 -2.34 dB -21.73 dB 4:56 16-Vejur Flyover
DR14 -4.06 dB -23.32 dB 3:15 17-The Meld
DR15 -2.21 dB -22.99 dB 4:17 18-Spock Walk
DR13 -0.22 dB -18.95 dB 3:16 19-End Title

Number of tracks: 19
Official DR value: DR13

Samplerate: 44100 Hz
Channels: 2
Bits per sample: 16
Bitrate: 655 kbps
Codec: FLAC

Exact Audio Copy V1.0 beta 3 from 29. August 2011

EAC extraction logfile from 16. March 2014, 14:15

Jerry Goldsmith / Star Trek: The Motion Picture (Disc 3)

Used drive : TSSTcorpCDDVDW SH-S202H Adapter: 0 ID: 0

Read mode : Secure
Utilize accurate stream : Yes
Defeat audio cache : Yes
Make use of C2 pointers : No

Read offset correction

: 6
Overread into Lead-In and Lead-Out : No
Fill up missing offset samples with silence : Yes
Delete leading and trailing silent blocks : No
Null samples used in CRC calculations : Yes
Used interface
: Native Win32 interface for Win NT & 2000

Used output format : Internal WAV Routines
Sample format : 44.100 Hz; 16 Bit; Stereo

TOC of the extracted CD Track | Start | Length | Start sector | End sector
--1 | 0:00.00 | 2:50.13 | 0 | 12762 2 | 2:50.13 | 1:43.53 | 12763 | 20540 3 | 4:33.66 | 3:48.47 | 20541 | 37687 4 | 8:22.38 | 1:28.18 | 37688 | 44305 5 | 9:50.56 | 0:35.29 | 44306 | 46959 6 | 10:26.10 | 0:53.31 | 46960 | 50965 7 | 11:19.41 | 2:00.44 | 50966 | 60009 8 | 13:20.10 | 5:04.26 | 60010 | 82835 9 | 18:24.36 | 1:13.45 | 82836 | 88355
10 | 19:38.06 | 3:48.20 | 88356 | 105475
11 | 23:26.26 | 3:47.46 | 105476 | 122546
12 | 27:13.72 | 4:05.09 | 122547 | 140930
13 | 31:19.06 | 4:02.40 | 140931 | 159120
14 | 35:21.46 | 3:16.26 | 159121 | 173846
15 | 38:37.72 | 2:27.33 | 173847 | 184904
16 | 41:05.30 | 1:44.17 | 184905 | 192721
17 | 42:49.47 | 7:20.61 | 192722 | 225782
18 | 50:10.33 | 2:32.47 | 225783 | 237229
19 | 52:43.05 | 4:03.72 | 237230 | 255526
20 | 56:47.02 | 0:59.31 | 255527 | 259982
21 | 57:46.33 | 1:43.45 | 259983 | 267752
22 | 59:30.03 | 5:23.72 | 267753 | 292049
23 | 64:54.00 | 2:42.48 | 292050 | 304247
24 | 67:36.48 | 3:33.09 | 304248 | 320231
25 | 71:09.57 | 3:25.28 | 320232 | 335634

Range status and errors

Selected range Filename D:\Jerry Goldsmith - Star Trek- The Motion Picture\Jerry Goldsmith - Star Trek- The Motion Picture (Disc 3).wav Peak level 100.0 %
Extraction speed 8.6 X
Range quality 100.0 %
Test CRC FED2F337
Copy CRC FED2F337
Copy OK

No errors occurred


AccurateRip summary

Track 1 accurately ripped (confidence 62) [E86C27FE] (AR v2)
Track 2 accurately ripped (confidence 62) [85545290] (AR v2)
Track 3 accurately ripped (confidence 62) [44408431] (AR v2)
Track 4 accurately ripped (confidence 62) [155E23AF] (AR v2)
Track 5 accurately ripped (confidence 62) [CD90DA1A] (AR v2)
Track 6 accurately ripped (confidence 62) [79A9EBE7] (AR v2)
Track 7 accurately ripped (confidence 62) [51A0BE29] (AR v2)
Track 8 accurately ripped (confidence 62) [01CFD480] (AR v2)
Track 9 accurately ripped (confidence 62) 1E2E8B2 (AR v2)
Track 10 accurately ripped (confidence 62) [09239EB0] (AR v2)
Track 11 accurately ripped (confidence 62) [0719B6E5] (AR v2)
Track 12 accurately ripped (confidence 62) [2D687EAF] (AR v2)
Track 13 accurately ripped (confidence 62) [D1910DDA] (AR v2)
Track 14 accurately ripped (confidence 62) [03B0C967] (AR v2)
Track 15 accurately ripped (confidence 60) [199549CD] (AR v2)
Track 16 accurately ripped (confidence 61) [459A56A8] (AR v2)
Track 17 accurately ripped (confidence 62) [8C9762BA] (AR v2)
Track 18 accurately ripped (confidence 62) [58053E3B] (AR v2)
Track 19 accurately ripped (confidence 62) [6B9853FB] (AR v2)
Track 20 accurately ripped (confidence 62) [C78B46BB] (AR v2)
Track 21 accurately ripped (confidence 61) [4E569A53] (AR v2)
Track 22 accurately ripped (confidence 62) [4D4180D5] (AR v2)
Track 23 accurately ripped (confidence 60) [4062CCFD] (AR v2)
Track 24 accurately ripped (confidence 61) [58CE3AB2] (AR v2)
Track 25 accurately ripped (confidence 62) [7155F9BC] (AR v2)

All tracks accurately ripped

End of status report

==== Log checksum 79876D4F7AE6E9709636523CD6F55AC6F703BBE541EC09007CB1D83E40B7A075 ====

foobar2000 1.2 / Dynamic Range Meter 1.1.1
log date: 2015-09-11 16:28:09

Statistics for: 05-Goodbye Klingon [Alternate Take]
Number of samples: 1560552
Duration: 0:35
Left Right

Peak Value: -1.33 dB -4.76 dB
Avg RMS: -16.44 dB -17.83 dB
DR channel: 8.51 dB 9.25 dB

Official DR Value: DR9

Samplerate: 44100 Hz
Channels: 2
Bits per sample: 16
Bitrate: 655 kbps
Codec: FLAC

Analyzed: Jerry Goldsmith / Star Trek: The Motion Picture (Disc 3)

DR Peak RMS Duration Track

DR11 -4.42 dB -22.51 dB 2:50 01-Overture [Long Version]
DR13 -0.16 dB -16.39 dB 1:44 02-Main Title [Alternate Take]
DR15 -0.45 dB -21.44 dB 3:49 03-Total Logic [Alternate Take]
DR10 -8.21 dB -23.92 dB 1:28 04-Malfunction [Early Take]
DR10 -12.16 dB -25.29 dB 0:53 06-No Goodbyes [Alternate Take]
DR11 -2.93 dB -20.74 dB 2:01 07-Spock's Arrival [Alternate Take]
DR14 -0.03 dB -20.68 dB 5:04 08-The Force Field [Alternate Take]
DR9 -11.25 dB -26.15 dB 1:14 09-Micro Exam [Alternate Take]
DR15 -0.32 dB -25.02 dB 3:48 10-Games [Early Synthesizer Version]
DR15 -1.63 dB -25.40 dB 3:48 11-Games [Alternate Take]
DR15 -0.25 dB -22.71 dB 4:05 12-Inner Workings [Alternate Take]
DR9 -1.26 dB -20.41 dB 4:03 13-V'Ger Speaks [Alternate Take]
DR12 -1.24 dB -18.09 dB 3:16 14-The Meld [Film Version]
DR13 -0.14 dB -20.32 dB 2:27 15-A Good Start [Discrete]
DR13 0.00 dB -15.04 dB 1:44 16-Main Title [Album Take]
DR15 -0.22 dB -20.65 dB 7:21 17-Main Title [First Raw Takes]
DR15 -2.32 dB -24.39 dB 2:33 18-The Force Field/The Cloud [Excerpts]
DR17 -3.38 dB -27.44 dB 4:04 19-Beams And Synthesizer For V'Ger
DR12 -19.25 dB -35.63 dB 0:59 20-Beams And Synthesizer For Ilia
DR10 -13.13 dB -28.23 dB 1:44 21-Synthesizer For Main Theme
DR13 -1.87 dB -21.43 dB 3:33 24-Ilia's Theme [Alternate]
DR13 -1.88 dB -18.06 dB 3:25 25-Theme From Star Trek: The Motion Picture [Concert Edit]

Number of tracks: 22
Official DR value: DR13

Samplerate: 44100 Hz
Channels: 2
Bits per sample: 16
Bitrate: 655 kbps
Codec: FLAC

Statistics for: 23-A Star Beyond Time
Number of samples: 7172424
Duration: 2:43
Left Right

Peak Value: -3.67 dB -4.97 dB
Avg RMS: -19.76 dB -21.13 dB
DR channel: 12.38 dB 11.93 dB

Official DR Value: DR12

Samplerate: 44100 Hz
Channels: 2
Bits per sample: 16
Bitrate: 655 kbps
Codec: FLAC

foobar2000 1.2 / Dynamic Range Meter 1.1.1
log date: 2015-09-11 16:28:09

Statistics for: 22-Main Theme From Star Trek: The Motion Picture
Number of samples: 14286636
Duration: 5:24
Left Right

Peak Value: -5.18 dB -4.01 dB
Avg RMS: -20.37 dB -20.66 dB
DR channel: 13.55 dB 13.83 dB

Official DR Value: DR14

Samplerate: 44100 Hz
Channels: 2
Bits per sample: 16
Bitrate: 655 kbps
Codec: FLAC

http://i69.fastpic.ru/big/2015/0912/29/3829276923fdf4f3abf377bf21093d29.jpg

http://i71.fastpic.ru/big/2015/0912/0e/0cf0bcb5e4ae6161f2f7e8edce3d9a0e.jpg

All thanks to original releaser - Composer's fan
Password: designol

DOWNLOAD LINKS:
Buy Premium To Support Me & Get Resumable Support & Max Speed


Links are Interchangeable - No Password - Single Extraction

Jerry Goldsmith - Star Trek: The Motion Picture (1979) 3CD Expanded Limited Edition 2012 Fast Download



 
 
 
Dear visitor, you went to the site as an unregistered user. We encourage you to register or enter the site under your name.
 
   
 
 (Votes #: 0)