2013Zone For Latest Downloads

 
     
 
Legal Downloads » TV Shows » Discovery Channel - The Krays: The Prison Years (2015)
Menu
Home Applications
Games Movies
Music TV Shows
Torrents Graphics

Sitemap

RSS
 
Advanced Search
Last News
Site Info
Top Contributors:
  1    supper88 32766
  2    admin 32693
  3    Whisky 10080
  4    Shark_ 8911
  5    creativelivenew 8706
  6    whathesupa 2799
  7    candymypost 840
  8    hvnteam 629
  9    vuong87 3


Articles:
  This Hour: 0
  Today: 10
  This Month: 62
  All Time: 515562


Torrents:
  Today: 0
  Yesterday: 0
  All Time: 156685


Membership:
  Registered Today :0
  This Hour:0
  This Month:0
  Total:14
  Banned:1

{online}
{inform_torrent}
Friend:
We Recomend
Trend
Trend
XsAd

Search In Site

TV Shows : Discovery Channel - The Krays: The Prison Years (2015)
 

http://i66.fastpic.ru/big/2015/0912/51/63e176d2ee0d8f8f2575f9b76ce53e51.jpg
Discovery Channel - The Krays: The Prison Years (2015)
HDTV | 1280x720 | .MKV/AVC @ 2053 Kbps | 43mn 57s | Audio: English AC3 384 kbps, 6 channels | Subs: None | 782 MiB
Genre: Documentary

"Discovery Channel explores the fascinating and largely untold story of the Kray twins following their imprisonment. This one-off documentary uses never-before seen footage, interviews and reconstructions to tell the story of the twins' lives from 1968 until their deaths. From their 30-day trial and Ronnie Kray's committal to Broadmoor - following his diagnosis as insane - to operations on the outside and the twins' various marriages inside. A number of the subjects interviewed for the documentary had first-hand dealings with the Krays, including Wilf Pine, Ronnie Kray's business manager; Freddie Foreman, who was sentenced at the same time as the Krays for the disposal of the body of Jack ?the hat' McVitie; and Maureen Flanagan, a close family friend and former model who Reggie proposed to three times whilst in prison."

General
Unique ID
: 0 (0x0)
Complete name : the.krays.the.prison.years.mkv
Format
: Matroska
Format version : Version 4 / Version 2
File size
: 782 MiB
Duration
: 43mn 57s
Overall bit rate : 2 487 Kbps

Video
ID : 1
Format
: AVC
Format/Info
: Advanced Video Codec
Format profile : [email protected]
Format settings, CABAC : Yes
Format settings, ReFrames : 5 frames
Codec ID
: V_MPEG4/ISO/AVC
Duration
: 43mn 57s
Bit rate
: 2 053 Kbps
Width
: 1 280 pixels
Height
: 720 pixels
Display aspect ratio : 16:9
Frame rate mode : Constant
Frame rate
: 25.000 fps
Color space
: YUV
Chroma subsampling

: 4:2:0
Bit depth
: 8 bits
Scan type
: Progressive
Bits/(Pixel*Frame)

: 0.089
Stream size
: 646 MiB (83%)
Writing library : x264 core 148 r2597 e86f3a1
Encoding settings: cabac=1 / ref=5 / deblock=1:0:0 / analyse=0x3:0x113 / me=umh / subme=8 / psy=1 / psy_rd=1.00:0.00 / mixed_ref=1 / me_range=16 / chroma_me=1 / trellis=1 / 8x8dct=1 / cqm=0 / deadzone=21,11 / fast_pskip=1 / chroma_qp_offset=-2 / threads=12 / lookahead_threads=2 / sliced_threads=0 / nr=0 / decimate=1 / interlaced=0 / bluray_compat=0 / constrained_intra=0 / bframes=3 / b_pyramid=2 / b_adapt=2 / b_bias=0 / direct=3 / weightb=1 / open_gop=0 / weightp=2 / keyint=250 / keyint_min=25 / scenecut=40 / intra_refresh=0 / rc_lookahead=50 / rc=crf / mbtree=1 / crf=20.0 / qcomp=0.60 / qpmin=0 / qpmax=69 / qpstep=4 / ip_ratio=1.40 / aq=1:1.00
Default
: Yes
Forced
: No
Color range
: Limited
Matrix coefficients

: BT.709

Audio
ID : 2
Format
: AC-3
Format/Info
: Audio Coding 3
Mode extension : CM (complete main)
Format settings, Endianness : Big
Codec ID
: A_AC3
Duration
: 43mn 57s
Bit rate mode : Constant
Bit rate
: 384 Kbps
Channel(s)
: 6 channels
Channel positions: Front: L C R, Side: L R, LFE
Sampling rate : 48.0 KHz
Compression mode : Lossy
Stream size
: 121 MiB (15%)
Title
: English
Language
: English
Default
: Yes
Forced
: No

Screenshots:

http://i72.fastpic.ru/big/2015/0912/bf/7e20c2ddd7adbd7169d72396d9e6b7bf.jpg

http://i65.fastpic.ru/big/2015/0912/7e/925af2989ba89822026fde5805e5ba7e.jpg

http://i66.fastpic.ru/big/2015/0912/e3/4101d64ecdc0fdd742b6a4f21f7f6be3.jpg

http://i66.fastpic.ru/big/2015/0912/2f/953431ef796e00da30c19443c83fda2f.jpg


DOWNLOAD LINKS:
Buy Premium To Support Me & Get Resumable Support & Max Speed


Links are Interchangeable - No Password - Single Extraction

Discovery Channel - The Krays: The Prison Years (2015) Fast Download


XsAd2

 
 
 
Dear visitor, you went to the site as an unregistered user. We encourage you to register or enter the site under your name.
 
   
 
 (Votes #: 0)