2013Zone For Latest Downloads

 
     
 
Legal Downloads » TV Shows » Discovery Channel - Panda Adventure with Nigel Marven (2012)
Menu
Home Applications
Games Movies
Music TV Shows
Torrents Graphics

Sitemap

RSS
 
Advanced Search
Last News
Site Info
Top Contributors:
  1    supper88 32766
  2    admin 32683
  3    Whisky 10080
  4    Shark_ 8911
  5    creativelivenew 8706
  6    whathesupa 2799
  7    candymypost 840
  8    hvnteam 629
  9    vuong87 3


Articles:
  This Hour: 0
  Today: 0
  This Month: 52
  All Time: 515552


Torrents:
  Today: 0
  Yesterday: 0
  All Time: 156675


Membership:
  Registered Today :0
  This Hour:0
  This Month:0
  Total:14
  Banned:1

{online}
{inform_torrent}
Friend:
Nulled Script Download
Torrent Download
Trend
Trend
VPN_ad

Search In Site

TV Shows : Discovery Channel - Panda Adventure with Nigel Marven (2012)
 

http://i67.fastpic.ru/big/2015/0914/7c/38b0b4510b03de264e043525526dfe7c.jpg
Discovery Channel - Panda Adventure with Nigel Marven (2012)
HDTV | 1280x720 | .MP4/AVC @ 3014 Kbps | 5x~44min | Audio: English AAC 160 kbps, 2 channels | Subs: None | 4.87 GiB
Genre: Documentary

"In ?Panda Adventure with Nigel Marven', the wildlife presenter heads to China to learn about giant pandas for his latest adventure. He visits the beautiful reserves the pandas inhabit, before heading into the wild to achieve his ambition of being the first presenter to be filmed with a giant panda in its native habitat. He is also astonished to witness a brown panda cub, one of only five known to science. Along his journey Nigel meets the other amazing creatures that live in the bamboo forest, including naughty macaques, golden snub-nosed monkeys and fluffy bamboo rats. He also feeds adorable red pandas, distant relatives of the giant panda."

Part 1:
Nigel begins his journey by gaining exclusive access to the world's biggest panda breeding centre in Chengdu, where he learns astonishing details about the creatures' bamboo feeding and spies an adorable posse of panda cubs. He also catches sight of a small but beautiful red panda. Next, Nigel heads to the last panda stronghold in the wild - the vast, mountainous region of central China.

Part 2:
Nigel visits the heart of panda country in the Foping Reserve. With the help of expert trackers, he finds panda droppings and pawprints - but the animals themselves remain elusive. There are extraordinary encounters with a giant flying squirrel and a bizarre bamboo rat; then, after days of searching, Nigel finally spots movement in the thick bamboo. Is a giant panda close by? Later, Nigel returns to the UK to follow up some unexpected Chinese connections.

Part 3:
Nigel meets San Diego Zoo's newest panda cub, and learns how they have achieved their breeding success. Next, Nigel travels back to Sichuan Province to meet pandas rescued when their home was destroyed in the devastating 2008 earthquake. Along the way, he encounters golden takin - a type of goat-antelope - before heading to Chengdu to catch up with the panda cubs and meet the newest arrival.

Part 4:
Nigel climbs the holy mountain of Emei Shan and encounters naughty macaque monkeys. After a hard day of trekking, Nigel sets traps overnight to catch small mammals. He discovers in the morning that they have been sprung by a mole shrew and a niviventer. After more difficult hiking, the team's efforts are finally rewarded with a spectacular glimpse of a panda in the wild.

Part 5:
Nigel is determined to locate a wild panda den. Elsewhere, Nigel catches up with Chengdu's panda cubs.

General
Complete name : Panda.Adventure.With.Nigel.Marven.Series.1.1of5.mp4
Format
: MPEG-4
Format profile : Base Media
Codec ID
: isom
File size
: 1 006 MiB
Duration
: 44mn 14s
Overall bit rate mode : Variable
Overall bit rate : 3 179 Kbps

Video
ID : 1
Format
: AVC
Format/Info
: Advanced Video Codec
Format profile : [email protected]
Format settings, CABAC : No
Format settings, ReFrames : 1 frame
Format settings, GOP : M=1, N=12
Codec ID
: avc1
Codec ID/Info : Advanced Video Coding
Duration
: 44mn 14s
Bit rate
: 3 014 Kbps
Width
: 1 280 pixels
Height
: 720 pixels
Display aspect ratio : 16:9
Frame rate mode : Constant
Frame rate
: 25.000 fps
Color space
: YUV
Chroma subsampling

: 4:2:0
Bit depth
: 8 bits
Scan type
: Progressive
Bits/(Pixel*Frame)

: 0.131
Stream size
: 954 MiB (95%)
Encoded date : UTC 2015-08-08 18:46:42
Tagged date
: UTC 2015-08-08 18:46:42

Audio
ID : 2
Format
: AAC
Format/Info
: Advanced Audio Codec
Format profile : LC
Codec ID
: 40
Duration
: 44mn 14s
Bit rate mode : Variable
Bit rate
: 160 Kbps
Channel(s)
: 2 channels
Channel positions: Front: L R
Sampling rate : 48.0 KHz
Compression mode : Lossy
Stream size
: 50.6 MiB (5%)
Encoded date : UTC 2015-08-08 18:46:42
Tagged date
: UTC 2015-08-08 18:46:42

Screenshots:

http://i66.fastpic.ru/big/2015/0914/4a/d214d2593ca1084bb2c5c04ad620fa4a.jpg

http://i65.fastpic.ru/big/2015/0914/40/8ea4f4b17b203de2638d136f5292cd40.jpg

http://i68.fastpic.ru/big/2015/0914/71/81789ba227aa96e12b88eef235640671.jpg

http://i68.fastpic.ru/big/2015/0914/dd/3b10027a66a1bb81b5f668a6a237ecdd.jpg


DOWNLOAD LINKS:
Buy Premium To Support Me & Get Resumable Support & Max Speed

Rapidgator.net:
0r26a.D.C.P.A.w.N.M.2012.part01.rar.html
0r26a.D.C.P.A.w.N.M.2012.part02.rar.html
0r26a.D.C.P.A.w.N.M.2012.part03.rar.html
0r26a.D.C.P.A.w.N.M.2012.part04.rar.html
0r26a.D.C.P.A.w.N.M.2012.part05.rar.html
0r26a.D.C.P.A.w.N.M.2012.part06.rar.html
0r26a.D.C.P.A.w.N.M.2012.part07.rar.html
0r26a.D.C.P.A.w.N.M.2012.part08.rar.html
0r26a.D.C.P.A.w.N.M.2012.part09.rar.html
0r26a.D.C.P.A.w.N.M.2012.part10.rar.html
0r26a.D.C.P.A.w.N.M.2012.part11.rar.html
0r26a.D.C.P.A.w.N.M.2012.part12.rar.html
0r26a.D.C.P.A.w.N.M.2012.part13.rar.html

Uploaded.net:
0r26a.D.C.P.A.w.N.M.2012.part01.rar
0r26a.D.C.P.A.w.N.M.2012.part02.rar
0r26a.D.C.P.A.w.N.M.2012.part03.rar
0r26a.D.C.P.A.w.N.M.2012.part04.rar
0r26a.D.C.P.A.w.N.M.2012.part05.rar
0r26a.D.C.P.A.w.N.M.2012.part06.rar
0r26a.D.C.P.A.w.N.M.2012.part07.rar
0r26a.D.C.P.A.w.N.M.2012.part08.rar
0r26a.D.C.P.A.w.N.M.2012.part09.rar
0r26a.D.C.P.A.w.N.M.2012.part10.rar
0r26a.D.C.P.A.w.N.M.2012.part11.rar
0r26a.D.C.P.A.w.N.M.2012.part12.rar
0r26a.D.C.P.A.w.N.M.2012.part13.rar

Nitroflare.com
0r26a.D.C.P.A.w.N.M.2012.part01.rar
0r26a.D.C.P.A.w.N.M.2012.part02.rar
0r26a.D.C.P.A.w.N.M.2012.part03.rar
0r26a.D.C.P.A.w.N.M.2012.part04.rar
0r26a.D.C.P.A.w.N.M.2012.part05.rar
0r26a.D.C.P.A.w.N.M.2012.part06.rar
0r26a.D.C.P.A.w.N.M.2012.part07.rar
0r26a.D.C.P.A.w.N.M.2012.part08.rar
0r26a.D.C.P.A.w.N.M.2012.part09.rar
0r26a.D.C.P.A.w.N.M.2012.part10.rar
0r26a.D.C.P.A.w.N.M.2012.part11.rar
0r26a.D.C.P.A.w.N.M.2012.part12.rar
0r26a.D.C.P.A.w.N.M.2012.part13.rar

Uploadable.ch:
0r26a.D.C.P.A.w.N.M.2012.part01.rar
0r26a.D.C.P.A.w.N.M.2012.part02.rar
0r26a.D.C.P.A.w.N.M.2012.part03.rar
0r26a.D.C.P.A.w.N.M.2012.part04.rar
0r26a.D.C.P.A.w.N.M.2012.part05.rar
0r26a.D.C.P.A.w.N.M.2012.part06.rar
0r26a.D.C.P.A.w.N.M.2012.part07.rar
0r26a.D.C.P.A.w.N.M.2012.part08.rar
0r26a.D.C.P.A.w.N.M.2012.part09.rar
0r26a.D.C.P.A.w.N.M.2012.part10.rar
0r26a.D.C.P.A.w.N.M.2012.part11.rar
0r26a.D.C.P.A.w.N.M.2012.part12.rar
0r26a.D.C.P.A.w.N.M.2012.part13.rar

Links are Interchangeable - No Password - Single Extraction

Discovery Channel - Panda Adventure with Nigel Marven (2012) Fast Download


Cheap VPN

 
 
 
Dear visitor, you went to the site as an unregistered user. We encourage you to register or enter the site under your name.
 
   
 
 (Votes #: 0)