2013Zone For Latest Downloads

 
     
 
Legal Downloads » Music » Turbo B. - Get Wild (1993)
Menu
Home Applications
Games Movies
Music TV Shows
Torrents Graphics

Sitemap

RSS
 
Advanced Search
Last News
Site Info
Top Contributors:
  1    supper88 32766
  2    admin 32693
  3    Whisky 10080
  4    Shark_ 8911
  5    creativelivenew 8706
  6    whathesupa 2799
  7    candymypost 840
  8    hvnteam 629
  9    vuong87 3


Articles:
  This Hour: 0
  Today: 0
  This Month: 0
  All Time: 515561


Torrents:
  Today: 0
  Yesterday: 0
  All Time: 156684


Membership:
  Registered Today :0
  This Hour:0
  This Month:0
  Total:14
  Banned:1

{online}
{inform_torrent}
Friend:
We Recomend
Trend
Trend
Ad1

Search In Site

Music : Turbo B. - Get Wild (1993)
 
http://i66.fastpic.ru/big/2015/0914/0c/c3e22ce0b6923503223abcf4c6c8580c.jpg

Turbo B. - Get Wild (1993)
EAC | Flac(Image) + Cue + Log & MP3 CBR 320Kbps
Spectrum Music, 551 104-2 | ~ 370 or 124 Mb | Scans(png) -> 63 Mb
Pop Rap / Downtempo / Euro House

"Rapper b. Maurice Durron Butler, 30 April 1967, Pittsburgh, Pennsylvania, USA. First a drummer in a heavy-metal band, then he was doing Human Beatbox performances at the live shows for the Fat Boys in the 1980's. In 1990, while in the army in Germany, he was introduced to Snap! and became a member and a public face of the project..."


Tracklist:

01. Maniac (4:55)
02. Don't Hold Back (5:01)
03. Nice & Smooth (5:15)
04. Best Of My Love (3:43)
05. Lyrical Jesse James (4:35)
06. I'm Not Dead (3:54)
07. Shake'em (3:15)
08. Chaos (5:12)
09. Get Wild (5:09)
10. What You See (4:57)
11. I'm Not Dead (Reincarnation Mix) (5:55)

Exact Audio Copy V1.1 from 23. June 2015

EAC extraction logfile from 4. September 2015, 10:57

Turbo B. / Get Wild

Used drive : SONY DVD RW AD-7260S Adapter: 0 ID: 0

Read mode : Secure
Utilize accurate stream : Yes
Defeat audio cache : Yes
Make use of C2 pointers : No

Read offset correction

: 48
Overread into Lead-In and Lead-Out : No
Fill up missing offset samples with silence : Yes
Delete leading and trailing silent blocks : No
Null samples used in CRC calculations : Yes
Used interface
: Installed external ASPI interface
Gap handling
: Appended to previous track

Used output format : Internal WAV Routines
Sample format : 44.100 Hz; 16 Bit; Stereo

TOC of the extracted CD Track | Start | Length | Start sector | End sector
--1 | 0:00.33 | 5:00.40 | 33 | 22572 2 | 5:00.73 | 5:05.22 | 22573 | 45469 3 | 10:06.20 | 5:19.13 | 45470 | 69407 4 | 15:25.33 | 3:47.55 | 69408 | 86487 5 | 19:13.13 | 4:38.70 | 86488 | 107407 6 | 23:52.08 | 3:57.50 | 107408 | 125232 7 | 27:49.58 | 3:19.17 | 125233 | 140174 8 | 31:09.00 | 5:16.18 | 140175 | 163892 9 | 36:25.18 | 5:13.60 | 163893 | 187427
10 | 41:39.03 | 4:55.52 | 187428 | 209604
11 | 46:34.55 | 5:54.03 | 209605 | 236157

Track 1 Filename W:\Turbo B. (ex Snap!)\1993 - Get Wild\01. Maniac.wav Pre-gap length 0:00:02.33 Peak level 90.4 %
Extraction speed 2.3 X
Track quality 100.0 %
Test CRC 4EEDADAA
Copy CRC 4EEDADAA
Accurately ripped (confidence 2) [D229A71B] (AR v2)
Copy OK

Track 2 Filename W:\Turbo B. (ex Snap!)\1993 - Get Wild\02. Don't Hold Back.wav Pre-gap length 0:00:02.65 Peak level 91.4 %
Extraction speed 2.7 X
Track quality 100.0 %
Test CRC CC5AED99
Copy CRC CC5AED99
Accurately ripped (confidence 2) [53B06BB2] (AR v2)
Copy OK

Track 3 Filename W:\Turbo B. (ex Snap!)\1993 - Get Wild\03. Nice & Smooth.wav Pre-gap length 0:00:03.12 Peak level 91.8 %
Extraction speed 2.9 X
Track quality 100.0 %
Test CRC DE8E014C
Copy CRC DE8E014C
Accurately ripped (confidence 2) [1783010C] (AR v2)
Copy OK

Track 4 Filename W:\Turbo B. (ex Snap!)\1993 - Get Wild\04. Best Of My Love.wav Pre-gap length 0:00:03.50 Peak level 91.9 %
Extraction speed 2.7 X
Track quality 99.9 %
Test CRC E2DF9F4C
Copy CRC E2DF9F4C
Accurately ripped (confidence 2) [F04FC517] (AR v2)
Copy OK

Track 5 Filename W:\Turbo B. (ex Snap!)\1993 - Get Wild\05. Lyrical Jesse James.wav Pre-gap length 0:00:02.48 Peak level 91.7 %
Extraction speed 3.3 X
Track quality 100.0 %
Test CRC 805B0C78
Copy CRC 805B0C78
Accurately ripped (confidence 2) [DBA74FB8] (AR v2)
Copy OK

Track 6 Filename W:\Turbo B. (ex Snap!)\1993 - Get Wild\06. I'm Not Dead.wav Pre-gap length 0:00:02.58 Peak level 89.9 %
Extraction speed 3.4 X
Track quality 100.0 %
Test CRC A62117A1
Copy CRC A62117A1
Accurately ripped (confidence 2) [E0AB2DB7] (AR v2)
Copy OK

Track 7 Filename W:\Turbo B. (ex Snap!)\1993 - Get Wild\07. Shake Em.wav Pre-gap length 0:00:02.43 Peak level 91.7 %
Extraction speed 3.5 X
Track quality 100.0 %
Test CRC D1A8A495
Copy CRC D1A8A495
Accurately ripped (confidence 2) [011A0ABA] (AR v2)
Copy OK

Track 8 Filename W:\Turbo B. (ex Snap!)\1993 - Get Wild\08. Chaos.wav Pre-gap length 0:00:02.50 Peak level 91.9 %
Extraction speed 3.9 X
Track quality 100.0 %
Test CRC B39A637C
Copy CRC B39A637C
Accurately ripped (confidence 2) [40C3D5FD] (AR v2)
Copy OK

Track 9 Filename W:\Turbo B. (ex Snap!)\1993 - Get Wild\09. Get Wild.wav Pre-gap length 0:00:02.35 Peak level 89.2 %
Extraction speed 4.0 X
Track quality 100.0 %
Test CRC 1253AFF1
Copy CRC 1253AFF1
Accurately ripped (confidence 2) [FC1592BE] (AR v2)
Copy OK

Track 10 Filename W:\Turbo B. (ex Snap!)\1993 - Get Wild\10. What You See.wav Pre-gap length 0:00:02.50 Peak level 90.9 %
Extraction speed 4.1 X
Track quality 100.0 %
Test CRC E0CBA606
Copy CRC E0CBA606
Accurately ripped (confidence 2) [A75FDDF2] (AR v2)
Copy OK

Track 11 Filename W:\Turbo B. (ex Snap!)\1993 - Get Wild\11. I'm Not Dead (Reincarnation Mix).wav Pre-gap length 0:00:01.45 Peak level 90.9 %
Extraction speed 4.4 X
Track quality 100.0 %
Test CRC EC50A430
Copy CRC EC50A430
Accurately ripped (confidence 2) [4A40A654] (AR v2)
Copy OK

All tracks accurately ripped

No errors occurred

End of status report

==== Log checksum 12C00A48F962CAC0E61E8DD3EE70D16CB0E5E88CB34CE1FDEFE4ACB9C690FDFC ====

foobar2000 1.2.9 / Dynamic Range Meter 1.1.1
log date: 2015-09-11 19:28:37

Analyzed: Turbo B. / Get Wild

DR Peak RMS Duration Track

DR11 -0.87 dB -13.38 dB 5:01 01-Maniac
DR11 -0.77 dB -12.66 dB 5:05 02-Don't Hold Back
DR10 -0.74 dB -12.03 dB 5:19 03-Nice & Smooth
DR10 -0.73 dB -11.06 dB 3:48 04-Best Of My Love
DR10 -0.75 dB -11.34 dB 4:39 05-Lyrical Jesse James
DR10 -0.92 dB -11.13 dB 3:58 06-I'm Not Dead
DR10 -0.75 dB -11.57 dB 3:19 07-Shake Em
DR8 -0.73 dB -11.52 dB 5:16 08-Chaos
DR10 -0.99 dB -12.09 dB 5:14 09-Get Wild
DR10 -0.82 dB -11.49 dB 4:56 10-What You See
DR12 -0.83 dB -14.60 dB 5:54 11-I'm Not Dead (Reincarnation Mix)

Number of tracks: 11
Official DR value: DR10

Samplerate: 44100 Hz
Channels: 2
Bits per sample: 16
Bitrate: 957 kbps
Codec: FLAC

[CUETools log; Date: 11.09.2015 19:28:14; Version: 2.1.4]
Pregap length 00:00:33.
[CTDB TOCID: XxZXrDHTGgxyMwaSOh9LuCi7ANk-] found.
Track | CTDB Status
1 | (2/2) Accurately ripped
2 | (2/2) Accurately ripped
3 | (2/2) Accurately ripped
4 | (2/2) Accurately ripped
5 | (2/2) Accurately ripped
6 | (2/2) Accurately ripped
7 | (2/2) Accurately ripped
8 | (2/2) Accurately ripped
9 | (2/2) Accurately ripped
10 | (2/2) Accurately ripped
11 | (2/2) Accurately ripped
[AccurateRip ID: 001544d0-00b774e0-910c4c0b] found.
Track [ CRC | V2 ] Status
01 076c71a|d229a71b (4+2/6) Accurately ripped
02 [7047d7af|53b06bb2] (5+2/7) Accurately ripped
03 03731b3|1783010c (5+2/7) Accurately ripped
04 [17403b56|f04fc517] (5+2/7) Accurately ripped
05 05269f7|dba74fb8 (5+2/7) Accurately ripped
06 [6930e106|e0ab2db7] (5+2/7) Accurately ripped
07 [3c3dcb20|011a0aba] (5+2/7) Accurately ripped
08 [e90e2ab4|40c3d5fd] (5+2/7) Accurately ripped
09 [63e34824|fc1592be] (5+2/7) Accurately ripped
10 [125203a1|a75fddf2] (5+2/7) Accurately ripped
11 [eb0bf4f3|4a40a654] (5+2/7) Accurately ripped

Track Peak [ CRC32 ] [W/O NULL] [ LOG ]
-- 91,9 [0C1B69E1] [1A5911C2]
01 90,4 [4EEDADAA] [98E33E34] CRC32
02 91,4 [CC5AED99] [3BD2A0DB] CRC32
03 91,8 [DE8E014C] [49A51E02] CRC32
04 91,9 [E2DF9F4C] [14194409] CRC32
05 91,7 [805B0C78] E7E3882 CRC32
06 89,9 [A62117A1] [62F67355] CRC32
07 91,7 [D1A8A495] [DE7433F5] CRC32
08 91,9 39A637C [5DA57295] CRC32
09 89,2 [1253AFF1] AF83A0D CRC32
10 90,9 [E0CBA606] [C8BF45EC] CRC32
11 90,9 [EC50A430] [AB373A0E] CRC32

http://i72.fastpic.ru/big/2015/0914/36/a0b193d914268310ae0cfa49a0c2b036.jpg

DOWNLOAD LINKS:
Buy Premium To Support Me & Get Resumable Support & Max Speed


Links are Interchangeable - No Password - Single Extraction

Turbo B. - Get Wild (1993) Fast Download


Ad2

 
 
 
Dear visitor, you went to the site as an unregistered user. We encourage you to register or enter the site under your name.
 
   
 
 (Votes #: 0)