2013Zone For Latest Downloads

 
     
 
Legal Downloads » Music » Vladimir Horowitz - Favorite Chopin (1987)
Menu
Home Applications
Games Movies
Music TV Shows
Torrents Graphics

Sitemap

RSS
 
Advanced Search
Last News
Site Info
Top Contributors:
  1    supper88 32766
  2    admin 32651
  3    Whisky 10080
  4    Shark_ 8911
  5    creativelivenew 8706
  6    whathesupa 2799
  7    candymypost 840
  8    hvnteam 629
  9    vuong87 3


Articles:
  This Hour: 0
  Today: 0
  This Month: 0
  All Time: 515681


Torrents:
  Today: 0
  Yesterday: 0
  All Time: 156685


Membership:
  Registered Today :0
  This Hour:0
  This Month:0
  Total:14
  Banned:1

{online}
{inform_torrent}
Friend:
We Recomend
Trend
Trend
onlinemovies

Search In Site

Music : Vladimir Horowitz - Favorite Chopin (1987)
 
http://i68.fastpic.ru/big/2015/0922/81/ed1328bf7957fbb372fd26f331d1d881.jpg

Vladimir Horowitz - Favorite Chopin (1987)
EAC | FLAC | Image (Cue&Log) ~ 273 Mb (incl 5%) | Mp3 (CBR320) ~ 176 Mb (incl 5%) | Scans included
Genre: Classical | Label: CBS | # MK 42306 | Time: 01:12:14

"Horowitz proves on this CD why he was/is recognized as one of the greatest performers of all time. This CD has a collection of music that ranges from soft and serene to vigorous and powerful. Horowitz himself adds more emotion to each piece, and this CD displays both his talent as a piano player and Chopin's wide variety of composition. Chopin wrote some of the hardest music to play, and very few people can play it well and consistent. Horowitz does both at an extraordinary level. If you like either Chopin or Horowitz, this is a MUST."

"This recording has amazing performances if you like Horowitz, and for some purposes, I do. I realize there are certainly better minds at the keyboard and more subtle performances. Richter is usually my first choice among pianists; he famously said that Horowitz had a great talent and a trivial mind. I have to agree. But after decades of immersing myself in the Ballades, and especially the No. 1 in G minor, Op. 23, I recommend this recording above all others. Horowitz lets it rip, and in just the right way, at just the right moment. When you want real oomph, real emotional impact with pieces like this, there is no one like Horowitz. That Ballade is simply gorgeous, as attested by its central appearance in the movie "Impromptu," about Chopin's life, with Hugh Grant as Chopin. There, Emanuel Ax did the honors and he plays well, no question. I also have Rubinstein, Ax, Entremont, and Pollini, as well as other recordings by Horowitz. It can be tricky to play with good phrasing. Alas, the sound on this recording is not great, but it's good enough. For real sizzle and bodice-ripping passion, this one is just the best.

Review by JMB1014, Amazon.com
"




Tracklist:

01. Polonaise In A-flat Major, Op. 53 Heroic (06:27)
02. Mazurka In D Major, Op. 33, No. 2 (02:50)
03. Waltz In C-sharp Minor, Op. 64, No. 2 (03:13)
04. Polonaise In A Major, Op. 40, No. 1 Military (04:55)
05. Etude In E Major, Op. 10, No. 3 (03:37)
06. Etude In C-sharp Minor, Op. 10, No. 4 (02:07)
07. Prelude In B Minor, Op. 28, No. 6 Raindrop (02:09)
08. Etude In G-flat Major, Op. 10, No. 5 Black Key (01:40)
09. Ballade No. 1 In G Minor, Op. 23 (08:51)
10. Waltz In A Minor, Op. 34, No. 2 (05:00)
11. Mazurka In A Minor, Op. 17, No. 4 (04:09)
12. Etude In C Minor, Op. 10, No. 12 Revolutionary (02:40)
13. Nocturne In F Minor, Op. 55, No. 1 (05:13)
14. Mazurka In F-sharp Minor, Op. 59, No. 3 (03:30)
15. Mazurka In D-flat Major, Op. 30, No. 3 (02:55)
16. Mazurka In F Minor, Op. 7, No. 3 (02:13)
17. Mazurka In E Minor, Op. 41, No. 2 (02:09)
18. Scherzo No. 1 In B Minor, Op. 20 (08:32)


Exact Audio Copy V1.0 beta 3 from 29. August 2011

EAC extraction logfile from 17. September 2013, 23:38

- / Vladimir Horowitz - Favorite Chopin

Used drive : ATAPI iHAS324 A Adapter: 0 ID: 1

Read mode : Secure
Utilize accurate stream : Yes
Defeat audio cache : Yes
Make use of C2 pointers : No

Read offset correction

: 6
Overread into Lead-In and Lead-Out : No
Fill up missing offset samples with silence : Yes
Delete leading and trailing silent blocks : No
Null samples used in CRC calculations : Yes
Used interface
: Native Win32 interface for Win NT & 2000

Used output format : User Defined Encoder
Selected bitrate : 768 kBit/s
Quality : High
Add ID3 tag : No
Command line compressor : C:\Program Files\Exact Audio Copy\FLAC\FLAC.EXE
Additional command line options : -V -8 -T "Date=%year%" -T "Genre=%genre%" %source%

TOC of the extracted CD Track | Start | Length | Start sector | End sector
--1 | 0:00.00 | 6:27.10 | 0 | 29034 2 | 6:27.10 | 2:50.00 | 29035 | 41784 3 | 9:17.10 | 3:13.00 | 41785 | 56259 4 | 12:30.10 | 4:55.00 | 56260 | 78384 5 | 17:25.10 | 3:37.00 | 78385 | 94659 6 | 21:02.10 | 2:07.00 | 94660 | 104184 7 | 23:09.10 | 2:09.00 | 104185 | 113859 8 | 25:18.10 | 1:40.00 | 113860 | 121359 9 | 26:58.10 | 8:52.00 | 121360 | 161259
10 | 35:50.10 | 5:00.72 | 161260 | 183831
11 | 40:51.07 | 4:09.03 | 183832 | 202509
12 | 45:00.10 | 2:40.00 | 202510 | 214509
13 | 47:40.10 | 5:13.00 | 214510 | 237984
14 | 52:53.10 | 3:30.72 | 237985 | 253806
15 | 56:24.07 | 2:55.03 | 253807 | 266934
16 | 59:19.10 | 2:13.00 | 266935 | 276909
17 | 61:32.10 | 2:09.22 | 276910 | 286606
18 | 63:41.32 | 8:32.58 | 286607 | 325064

Range status and errors

Selected range Filename C:\Users\Nikita\Desktop\111\Vladimir Horowitz - Favorite Chopin.wav Peak level 72.0 %
Extraction speed 6.9 X
Range quality 100.0 %
Test CRC 919C8CCC
Copy CRC 919C8CCC
Copy OK

No errors occurred


AccurateRip summary

Track 1 accurately ripped (confidence 4) [E9CED8C4] (AR v2)
Track 2 accurately ripped (confidence 4) [A7BFF349] (AR v2)
Track 3 accurately ripped (confidence 4) [09573719] (AR v2)
Track 4 accurately ripped (confidence 4) [C0A17F58] (AR v2)
Track 5 accurately ripped (confidence 4) [EC64D8B9] (AR v2)
Track 6 accurately ripped (confidence 4) [4C6AAAFD] (AR v2)
Track 7 accurately ripped (confidence 4) [C9ECAE12] (AR v2)
Track 8 accurately ripped (confidence 4) [D6582D27] (AR v2)
Track 9 accurately ripped (confidence 4) [F0F18172] (AR v2)
Track 10 accurately ripped (confidence 4) 55AD17E (AR v2)
Track 11 accurately ripped (confidence 4) [A360EB43] (AR v2)
Track 12 accurately ripped (confidence 4) [81AE1788] (AR v2)
Track 13 accurately ripped (confidence 4) [3FE2D271] (AR v2)
Track 14 accurately ripped (confidence 4) [0F62A337] (AR v2)
Track 15 accurately ripped (confidence 4) [99A3EF91] (AR v2)
Track 16 accurately ripped (confidence 4) [6AAB66EE] (AR v2)
Track 17 accurately ripped (confidence 4) [9B47E97C] (AR v2)
Track 18 accurately ripped (confidence 4) [9E7AF42B] (AR v2)

All tracks accurately ripped

End of status report

==== Log checksum 6FDBE15A95B9C3B4E23F331749491F2A2F74B8F5240C99788B81B34FA87BE5A8 ====

foobar2000 1.2 / Dynamic Range Meter 1.1.1
log date: 2015-09-20 21:14:26

Analyzed: Vladimir Horowitz / Vladimir Horowitz - Favorite Chopin

DR Peak RMS Duration Track

DR12 -3.93 dB -19.79 dB 6:27 01-Polonaise In A-flat Major, Op. 53 Heroic
DR13 -6.37 dB -25.30 dB 2:50 02-Mazurka In D Major, Op. 33, No. 2
DR12 -6.29 dB -25.01 dB 3:13 03-Waltz In C-sharp Minor, Op. 64, No. 2
DR11 -4.26 dB -19.08 dB 4:55 04-Polonaise In A Major, Op. 40, No. 1 Military
DR13 -4.44 dB -24.43 dB 3:37 05-Etude In E Major, Op. 10, No. 3
DR13 -4.36 dB -20.09 dB 2:07 06-Etude In C-sharp Minor, Op. 10, No. 4
DR12 -15.04 dB -34.78 dB 2:09 07-Prelude In B Minor, Op. 28, No. 6 Raindrop
DR12 -5.03 dB -22.98 dB 1:40 08-Etude In G-flat Major, Op. 10, No. 5 Black Key
DR13 -5.26 dB -24.39 dB 8:52 09-Ballade No. 1 In G Minor, Op. 23
DR13 -9.35 dB -28.25 dB 5:01 10-Waltz In A Minor, Op. 34, No. 2
DR16 -9.39 dB -32.13 dB 4:09 11-Mazurka In A Minor, Op. 17, No. 4
DR12 -2.85 dB -18.68 dB 2:40 12-Etude In C Minor, Op. 10, No. 12 Revolutionary
DR14 -7.27 dB -27.43 dB 5:13 13-Nocturne In F Minor, Op. 55, No. 1
DR12 -6.93 dB -25.97 dB 3:31 14-Mazurka In F-sharp Minor, Op. 59, No. 3
DR13 -10.31 dB -28.65 dB 2:55 15-Mazurka In D-flat Major, Op. 30, No. 3
DR13 -12.84 dB -32.29 dB 2:13 16-Mazurka In F Minor, Op. 7, No. 3
DR12 -5.93 dB -27.39 dB 2:09 17-Mazurka In E Minor, Op. 41, No. 2
DR11 -8.06 dB -25.51 dB 8:33 18-Scherzo No. 1 In B Minor, Op. 20

Number of tracks: 18
Official DR value: DR13

Samplerate: 44100 Hz
Channels: 2
Bits per sample: 16
Bitrate: 480 kbps
Codec: FLAC

http://i67.fastpic.ru/big/2015/0922/92/7699cd1076b74e9c2f8685de5db89792.jpg

http://i67.fastpic.ru/big/2015/0922/e4/e0a28fc73c358f3c97539f3ef6ac35e4.jpg

All thanks to original releaser - forester63
Password: designol

DOWNLOAD LINKS:
Buy Premium To Support Me & Get Resumable Support & Max Speed


Links are Interchangeable - No Password - Single Extraction

 
 
 
Dear visitor, you went to the site as an unregistered user. We encourage you to register or enter the site under your name.
 
   
 
 (Votes #: 0)