2013Zone For Latest Downloads

 
     
 
Legal Downloads » Music » The Lovin' Spoonful - Anthology (1990)
Menu
Home Applications
Games Movies
Music TV Shows
Torrents Graphics

Sitemap

RSS
 
Advanced Search
Last News
Site Info
Top Contributors:
  1    supper88 32766
  2    admin 32651
  3    Whisky 10080
  4    Shark_ 8911
  5    creativelivenew 8706
  6    whathesupa 2799
  7    candymypost 840
  8    hvnteam 629
  9    vuong87 3


Articles:
  This Hour: 0
  Today: 0
  This Month: 13
  All Time: 515682


Torrents:
  Today: 0
  Yesterday: 0
  All Time: 156685


Membership:
  Registered Today :0
  This Hour:0
  This Month:0
  Total:14
  Banned:1

{online}
{inform_torrent}
Friend:
We Recomend
Trend
Trend
onlinemovies

Search In Site

Music : The Lovin' Spoonful - Anthology (1990)
 
http://i65.fastpic.ru/big/2015/0922/f9/e243b5fd815c0f2bf76b0a05a46c2ff9.jpg

The Lovin' Spoonful - Anthology (1990)
EAC | Flac(Image) + Cue + Log & MP3 CBR 320Kbps
Rhino Records, R2 70944 | ~ 458 or 186 Mb | Scans Included
Rock / Pop Rock

"Unquestionably the finest collection of a major band that did much to launch American folk-rock in the mid-'60s. Anthology jams 26 cuts onto a single CD, including all of their hits and some of their strongest album tracks, drawing mostly from their 1965-1966 prime..."


Tracklist:

01. Good Time Music (03:10)
02. Do You Believe In Magic (02:07)
03. You Didn't Have To Be So Nice (02:30)
04. Did You Ever Have To Make Up Your Mind (02:00)
05. You Baby (02:57)
06. Younger Girl (02:21)
07. Fishin' Blues (02:02)
08. Daydream (02:23)
09. Jug Band Music (02:54)
10. Didn't Want To Have To Do It (02:40)
11. Summer In The City (02:43)
12. Pow! (02:28)
13. Rain On The Roof (02:16)
14. Nashville Cats (02:39)
15. Full Measure (02:45)
16. Lovin' You (02:32)
17. Coconut Grove (02:45)
18. Darling Be Home Soon (03:36)
19. You're A Big Boy Now (02:33)
20. Lonely (Amy's Theme) (03:23)
21. Six O'clock (02:45)
22. She Is Still A Mystery (03:04)
23. Money (01:59)
24. Younger Generation (02:44)
25. Never Going Back (02:53)
26. Me About You (03:46)

Musicians:

John Sebastian - lead vocals (except tracks 5, 15, 20, 25 and 26), guitar, autoharp (except tracks 25 and 26)
Steve Boone - bass, vocals
Joe Butler - drums, percussion, vocals, lead vocals on tracks 5, 15, 25 and 26
Zal Yanovsky - guitar, vocals (except tracks 22-26)
Jerry Yester - guitar, vocals (tracks 22-26)


Exact Audio Copy V0.99 prebeta 4 from 23. January 2008

EAC extraction logfile from 5. June 2008, 14:26

The Lovin' Spoonful / Anthology

Used drive : LITE-ON DVDRW LH-18A1P Adapter: 3 ID: 1

Read mode : Secure
Utilize accurate stream : Yes
Defeat audio cache : Yes
Make use of C2 pointers : No

Read offset correction

: 6
Overread into Lead-In and Lead-Out : No
Fill up missing offset samples with silence : Yes
Delete leading and trailing silent blocks : No
Null samples used in CRC calculations : Yes
Used interface
: Installed external ASPI interface
Gap handling
: Appended to previous track

Used output format : User Defined Encoder
Selected bitrate : 128 kBit/s
Quality : High
Add ID3 tag : No
Command line compressor : C:\Program Files\Exact Audio Copy\Flac\flac.exe
Additional command line options : -V -8 -T "artist=%a" -T "title=%t" -T "album=%g" -T "date=%y" -T "tracknumber=%n" -T "genre=%m" %s

TOC of the extracted CD Track | Start | Length | Start sector | End sector
--1 | 0:00.32 | 3:10.15 | 32 | 14296 2 | 3:10.47 | 2:07.40 | 14297 | 23861 3 | 5:18.12 | 2:30.28 | 23862 | 35139 4 | 7:48.40 | 2:00.70 | 35140 | 44209 5 | 9:49.35 | 2:57.40 | 44210 | 57524 6 | 12:47.00 | 2:21.12 | 57525 | 68111 7 | 15:08.12 | 2:02.65 | 68112 | 77326 8 | 17:11.02 | 2:23.13 | 77327 | 88064 9 | 19:34.15 | 2:54.62 | 88065 | 101176
10 | 22:29.02 | 2:40.70 | 101177 | 113246
11 | 25:09.72 | 2:43.60 | 113247 | 125531
12 | 27:53.57 | 2:28.60 | 125532 | 136691
13 | 30:22.42 | 2:16.58 | 136692 | 146949
14 | 32:39.25 | 2:39.25 | 146950 | 158899
15 | 35:18.50 | 2:45.00 | 158900 | 171274
16 | 38:03.50 | 2:32.32 | 171275 | 182706
17 | 40:36.07 | 2:45.40 | 182707 | 195121
18 | 43:21.47 | 3:36.20 | 195122 | 211341
19 | 46:57.67 | 2:33.33 | 211342 | 222849
20 | 49:31.25 | 3:23.07 | 222850 | 238081
21 | 52:54.32 | 2:45.00 | 238082 | 250456
22 | 55:39.32 | 3:04.45 | 250457 | 264301
23 | 58:44.02 | 1:59.10 | 264302 | 273236
24 | 60:43.12 | 2:44.28 | 273237 | 285564
25 | 63:27.40 | 2:53.55 | 285565 | 298594
26 | 66:21.20 | 3:46.70 | 298595 | 315614

Track 1 Filename C:\Documents and Settings\John\My Documents\EAC Rips\The Lovin' Spoonful - 1990 - Anthology\01 - Good Time Music.wav Pre-gap length 0:00:02.42 Peak level 83.4 %
Track quality 100.0 %
Test CRC A78E1C7D
Copy CRC A78E1C7D
Accurately ripped (confidence 7) [ED70A46E]
Copy OK

Track 2 Filename C:\Documents and Settings\John\My Documents\EAC Rips\The Lovin' Spoonful - 1990 - Anthology\02 - Do You Believe In Magic.wav Pre-gap length 0:00:02.40 Peak level 88.8 %
Track quality 100.0 %
Test CRC EE4757D7
Copy CRC EE4757D7
Accurately ripped (confidence 7) A540F83
Copy OK

Track 3 Filename C:\Documents and Settings\John\My Documents\EAC Rips\The Lovin' Spoonful - 1990 - Anthology\03 - You Didn't Have To Be So Nice.wav Pre-gap length 0:00:02.86 Peak level 90.9 %
Track quality 100.0 %
Test CRC 94CA4AD3
Copy CRC 94CA4AD3
Accurately ripped (confidence 7) [6D905D25]
Copy OK

Track 4 Filename C:\Documents and Settings\John\My Documents\EAC Rips\The Lovin' Spoonful - 1990 - Anthology\04 - Did You Ever Have To Make Up Your Mind.wav Pre-gap length 0:00:03.17 Peak level 89.1 %
Track quality 100.0 %
Test CRC D06E1379
Copy CRC D06E1379
Accurately ripped (confidence 7) [DA19E710]
Copy OK

Track 5 Filename C:\Documents and Settings\John\My Documents\EAC Rips\The Lovin' Spoonful - 1990 - Anthology\05 - You Baby.wav Pre-gap length 0:00:02.64 Peak level 86.5 %
Track quality 100.0 %
Test CRC C6BE075D
Copy CRC C6BE075D
Accurately ripped (confidence 7) [03B28896]
Copy OK

Track 6 Filename C:\Documents and Settings\John\My Documents\EAC Rips\The Lovin' Spoonful - 1990 - Anthology\06 - Younger Girl.wav Pre-gap length 0:00:03.24 Peak level 94.5 %
Track quality 100.0 %
Test CRC 3C48FF00
Copy CRC 3C48FF00
Accurately ripped (confidence 7) [726BE421]
Copy OK

Track 7 Filename C:\Documents and Settings\John\My Documents\EAC Rips\The Lovin' Spoonful - 1990 - Anthology\07 - Fishin' Blues.wav Pre-gap length 0:00:03.24 Peak level 80.4 %
Track quality 99.9 %
Test CRC BD297376
Copy CRC BD297376
Accurately ripped (confidence 7) 162EE5A
Copy OK

Track 8 Filename C:\Documents and Settings\John\My Documents\EAC Rips\The Lovin' Spoonful - 1990 - Anthology\08 - Daydream.wav Pre-gap length 0:00:03.40 Peak level 81.3 %
Track quality 100.0 %
Test CRC 5D656C51
Copy CRC 5D656C51
Accurately ripped (confidence 7) 4E01013
Copy OK

Track 9 Filename C:\Documents and Settings\John\My Documents\EAC Rips\The Lovin' Spoonful - 1990 - Anthology\09 - Jug Band Music.wav Pre-gap length 0:00:02.85 Peak level 92.5 %
Track quality 100.0 %
Test CRC 6FBFD764
Copy CRC 6FBFD764
Accurately ripped (confidence 7) [4C325ADC]
Copy OK

Track 10 Filename C:\Documents and Settings\John\My Documents\EAC Rips\The Lovin' Spoonful - 1990 - Anthology\10 - Didn't Want To Have To Do It.wav Pre-gap length 0:00:03.34 Peak level 83.6 %
Track quality 100.0 %
Test CRC 91A3C873
Copy CRC 91A3C873
Accurately ripped (confidence 7) [FAF8C25A]
Copy OK

Track 11 Filename C:\Documents and Settings\John\My Documents\EAC Rips\The Lovin' Spoonful - 1990 - Anthology\11 - Summer In The City.wav Pre-gap length 0:00:03.10 Peak level 87.9 %
Track quality 100.0 %
Test CRC B1DA06E0
Copy CRC B1DA06E0
Accurately ripped (confidence 7) [609201D3]
Copy OK

Track 12 Filename C:\Documents and Settings\John\My Documents\EAC Rips\The Lovin' Spoonful - 1990 - Anthology\12 - Pow!.wav Pre-gap length 0:00:03.30 Peak level 91.1 %
Track quality 100.0 %
Test CRC 34CFE7CC
Copy CRC 34CFE7CC
Accurately ripped (confidence 7) [D5047C41]
Copy OK

Track 13 Filename C:\Documents and Settings\John\My Documents\EAC Rips\The Lovin' Spoonful - 1990 - Anthology\13 - Rain On The Roof.wav Pre-gap length 0:00:03.24 Peak level 79.0 %
Track quality 100.0 %
Test CRC 3171D670
Copy CRC 3171D670
Accurately ripped (confidence 7) [C338BCE3]
Copy OK

Track 14 Filename C:\Documents and Settings\John\My Documents\EAC Rips\The Lovin' Spoonful - 1990 - Anthology\14 - Nashville Cats.wav Pre-gap length 0:00:03.38 Peak level 100.0 %
Track quality 100.0 %
Test CRC 62FEA5B6
Copy CRC 62FEA5B6
Accurately ripped (confidence 7) [C6DC0216]
Copy OK

Track 15 Filename C:\Documents and Settings\John\My Documents\EAC Rips\The Lovin' Spoonful - 1990 - Anthology\15 - Full Measure.wav Pre-gap length 0:00:03.04 Peak level 100.0 %
Track quality 100.0 %
Test CRC C7B5737F
Copy CRC C7B5737F
Accurately ripped (confidence 7) [7D61F852]
Copy OK

Track 16 Filename C:\Documents and Settings\John\My Documents\EAC Rips\The Lovin' Spoonful - 1990 - Anthology\16 - Lovin' You.wav Pre-gap length 0:00:03.52 Peak level 97.9 %
Track quality 99.9 %
Test CRC C3D1B32F
Copy CRC C3D1B32F
Accurately ripped (confidence 7) [CCE69C8A]
Copy OK

Track 17 Filename C:\Documents and Settings\John\My Documents\EAC Rips\The Lovin' Spoonful - 1990 - Anthology\17 - Coconut Grove.wav Pre-gap length 0:00:03.61 Peak level 69.6 %
Track quality 100.0 %
Test CRC 30FD3330
Copy CRC 30FD3330
Accurately ripped (confidence 5) [0B657B5D]
Copy OK

Track 18 Filename C:\Documents and Settings\John\My Documents\EAC Rips\The Lovin' Spoonful - 1990 - Anthology\18 - Darling Be Home Soon.wav Pre-gap length 0:00:03.50 Peak level 94.6 %
Track quality 100.0 %
Test CRC D27E700A
Copy CRC D27E700A
Accurately ripped (confidence 7) [D0DAB7C1]
Copy OK

Track 19 Filename C:\Documents and Settings\John\My Documents\EAC Rips\The Lovin' Spoonful - 1990 - Anthology\19 - You're A Big Boy Now.wav Pre-gap length 0:00:03.04 Peak level 92.8 %
Track quality 100.0 %
Test CRC 49734161
Copy CRC 49734161
Accurately ripped (confidence 7) [7D0ABD85]
Copy OK

Track 20 Filename C:\Documents and Settings\John\My Documents\EAC Rips\The Lovin' Spoonful - 1990 - Anthology\20 - Lonely (Amy's Theme).wav Pre-gap length 0:00:02.85 Peak level 85.2 %
Track quality 100.0 %
Test CRC E4E15ED7
Copy CRC E4E15ED7
Accurately ripped (confidence 7) [4CBD554A]
Copy OK

Track 21 Filename C:\Documents and Settings\John\My Documents\EAC Rips\The Lovin' Spoonful - 1990 - Anthology\21 - Six O'clock.wav Pre-gap length 0:00:03.28 Peak level 100.0 %
Track quality 100.0 %
Test CRC 86CE23D1
Copy CRC 86CE23D1
Accurately ripped (confidence 7) [7B24D3E4]
Copy OK

Track 22 Filename C:\Documents and Settings\John\My Documents\EAC Rips\The Lovin' Spoonful - 1990 - Anthology\22 - She Is Still A Mystery.wav Pre-gap length 0:00:02.97 Peak level 99.9 %
Track quality 99.9 %
Test CRC D50550DB
Copy CRC D50550DB
Accurately ripped (confidence 7) [ECB94D0C]
Copy OK

Track 23 Filename C:\Documents and Settings\John\My Documents\EAC Rips\The Lovin' Spoonful - 1990 - Anthology\23 - Money.wav Pre-gap length 0:00:03.54 Peak level 100.0 %
Track quality 100.0 %
Test CRC 742A0720
Copy CRC 742A0720
Accurately ripped (confidence 6) [C8659032]
Copy OK

Track 24 Filename C:\Documents and Settings\John\My Documents\EAC Rips\The Lovin' Spoonful - 1990 - Anthology\24 - Younger Generation.wav Pre-gap length 0:00:03.24 Peak level 80.3 %
Track quality 99.9 %
Test CRC D68557FD
Copy CRC D68557FD
Accurately ripped (confidence 7) [9A714A4F]
Copy OK

Track 25 Filename C:\Documents and Settings\John\My Documents\EAC Rips\The Lovin' Spoonful - 1990 - Anthology\25 - Never Going Back.wav Pre-gap length 0:00:03.41 Peak level 76.8 %
Track quality 100.0 %
Test CRC 68130ABE
Copy CRC 68130ABE
Accurately ripped (confidence 7) [31B50FC6]
Copy OK

Track 26 Filename C:\Documents and Settings\John\My Documents\EAC Rips\The Lovin' Spoonful - 1990 - Anthology\26 - Me About You.wav Pre-gap length 0:00:03.05 Peak level 67.3 %
Track quality 100.0 %
Test CRC 5C624DC6
Copy CRC 5C624DC6
Accurately ripped (confidence 7) [D9109A1D]
Copy OK

All tracks accurately ripped

No errors occurred

End of status report

foobar2000 1.2.9 / Dynamic Range Meter 1.1.1
log date: 2015-09-21 13:56:28

Analyzed: The Lovin' Spoonful / Anthology

DR Peak RMS Duration Track

DR11 -1.57 dB -14.42 dB 3:10 01-Good Time Music
DR10 -1.03 dB -14.82 dB 2:08 02-Do You Believe In Magic
DR11 -0.82 dB -15.21 dB 2:30 03-You Didn't Have To Be So Nice
DR10 -1.00 dB -13.78 dB 2:01 04-Did You Ever Have To Make Up Your Mind
DR11 -1.26 dB -16.24 dB 2:58 05-You Baby
DR11 -0.49 dB -15.63 dB 2:21 06-Younger Girl
DR11 -1.89 dB -15.29 dB 2:03 07-Fishin' Blues
DR11 -1.79 dB -14.92 dB 2:23 08-Daydream
DR10 -0.67 dB -14.58 dB 2:55 09-Jug Band Music
DR11 -1.55 dB -15.40 dB 2:41 10-Didn't Want To Have To Do It
DR10 -1.11 dB -13.58 dB 2:44 11-Summer In The City
DR9 -0.80 dB -11.39 dB 2:29 12-Pow!
DR10 -2.04 dB -15.11 dB 2:17 13-Rain On The Roof
DR11 0.00 dB -14.16 dB 2:39 14-Nashville Cats
DR10 0.00 dB -13.18 dB 2:45 15-Full Measure
DR11 -0.18 dB -14.63 dB 2:32 16-Lovin' You
DR11 -3.14 dB -17.20 dB 2:46 17-Coconut Grove
DR11 -0.48 dB -14.04 dB 3:36 18-Darling Be Home Soon
DR11 -0.65 dB -15.85 dB 2:33 19-You're A Big Boy Now
DR11 -1.38 dB -16.40 dB 3:23 20-Lonely (Amy's Theme)
DR12 0.00 dB -14.16 dB 2:45 21-Six O'clock
DR11 0.00 dB -14.83 dB 3:05 22-She Is Still A Mystery
DR14 0.00 dB -18.05 dB 1:59 23-Money
DR12 -1.90 dB -18.39 dB 2:44 24-Younger Generation
DR10 -2.29 dB -15.68 dB 2:54 25-Never Going Back
DR10 -3.43 dB -18.07 dB 3:47 26-Me About You

Number of tracks: 26
Official DR value: DR11

Samplerate: 44100 Hz
Channels: 2
Bits per sample: 16
Bitrate: 849 kbps
Codec: FLAC

CUETools log; Date: 21.09.2015 13:56:20; Version: 2.1.4]
Pregap length 00:00:32.
[CTDB TOCID: Xjj5ohOnW0KIvsN3P6jXuig8gSU-] found.
Track | CTDB Status
1 | (3/3) Accurately ripped
2 | (3/3) Accurately ripped
3 | (3/3) Accurately ripped
4 | (3/3) Accurately ripped
5 | (3/3) Accurately ripped
6 | (3/3) Accurately ripped
7 | (3/3) Accurately ripped
8 | (3/3) Accurately ripped
9 | (3/3) Accurately ripped
10 | (3/3) Accurately ripped
11 | (3/3) Accurately ripped
12 | (3/3) Accurately ripped
13 | (3/3) Accurately ripped
14 | (3/3) Accurately ripped
15 | (3/3) Accurately ripped
16 | (3/3) Accurately ripped
17 | (3/3) Accurately ripped
18 | (3/3) Accurately ripped
19 | (3/3) Accurately ripped
20 | (3/3) Accurately ripped
21 | (3/3) Accurately ripped
22 | (3/3) Accurately ripped
23 | (3/3) Accurately ripped
24 | (3/3) Accurately ripped
25 | (3/3) Accurately ripped
26 | (3/3) Accurately ripped
[AccurateRip ID: 003e9079-04981f4b-6d10701a] found.
Track [ CRC | V2 ] Status
01 [ed70a46e|bb7837ec] (23+12/35) Accurately ripped
02 a540f83|3b2510d9 (24+11/35) Accurately ripped
03 [6d905d25|9cd55bda] (24+11/35) Accurately ripped
04 [da19e710|c8d28506] (24+11/35) Accurately ripped
05 [03b28896|742e18b8] (24+11/35) Accurately ripped
06 [726be421|33f15a2e] (24+11/35) Accurately ripped
07 162ee5a|90a2637c (24+11/35) Accurately ripped
08 4e01013|5a5def97 (24+11/35) Accurately ripped
09 [4c325adc|a0f6ed3b] (24+11/35) Accurately ripped
10 [faf8c25a|27de117c] (24+11/35) Accurately ripped
11 [609201d3|5a7d7b89] (25+11/38) Accurately ripped
12 [d5047c41|a3bad790] (24+11/35) Accurately ripped
13 [c338bce3|c7a90b9b] (23+11/34) Accurately ripped
14 [c6dc0216|9660f806] (23+11/34) Accurately ripped
15 [7d61f852|225b2f46] (24+11/35) Accurately ripped
16 [cce69c8a|ea11c46f] (24+11/35) Accurately ripped
17 [0b657b5d|e14daa1c] (23+11/34) Accurately ripped
18 [d0dab7c1|ae28dcfe] (23+11/34) Accurately ripped
19 [7d0abd85|82d72884] (23+11/34) Accurately ripped
20 [4cbd554a|895bb747] (23+11/34) Accurately ripped
21 [7b24d3e4|b0e872ad] (24+10/34) Accurately ripped
22 [ecb94d0c|ebbebd36] (23+10/33) Accurately ripped
23 [c8659032|ea3ef493] (22+10/32) Accurately ripped
24 [9a714a4f|7e85d1ee] (23+10/33) Accurately ripped
25 [31b50fc6|f04a1fdf] (23+11/34) Accurately ripped
26 [d9109a1d|e760ca9d] (22+11/33) Accurately ripped
Offsetted by -6:
01 [665ee546] (00/35) No match
02 928f9b9 (00/35) No match
03 [c27ee0a3] (00/35) No match
04 [55d80882] (00/35) No match
05 [ec632366] (00/35) No match
06 [cd837075] (00/35) No match
07 [ecd5fb2e] (00/35) No match
08 [8884b450] (00/35) No match
09 [47d8b6ec] (00/35) No match
10 [d05d77cc] (00/35) No match
11 [510d5592] (00/38) No match (V2 was not tested)
12 [3edba815] (00/35) No match
13 [6adfeb16] (00/34) No match
14 [319aa1ca] (00/34) No match
15 [6bcc3bd9] (00/35) No match
16 a04643b (00/35) No match
17 [8c5f352d] (00/34) No match
18 ca4c25d (00/34) No match
19 [5988e6a7] (00/34) No match
20 [681679ea] (00/34) No match
21 bfbe28f (00/34) No match
22 [0d210010] (00/33) No match
23 [3269cb27] (00/32) No match
24 [5a34273b] (00/33) No match
25 03616bc (00/34) No match
26 [a48376f7] (00/33) No match

Track Peak [ CRC32 ] [W/O NULL] [ LOG ]
-- 100,0 [90CCF855] [2A9BE935]
01 83,4 [A78E1C7D] [0D0DBDB5] CRC32
02 88,8 [EE4757D7] [97FB00B8] CRC32
03 90,9 [94CA4AD3] [9E72EE6C] CRC32
04 89,1 [D06E1379] [C1C177F9] CRC32
05 86,5 [C6BE075D] [09957EE9] CRC32
06 94,5 [3C48FF00] [EA1CDC49] CRC32
07 80,4 D297376 [5741BC22] CRC32
08 81,3 [5D656C51] [68021D9F] CRC32
09 92,5 [6FBFD764] [E05D21DF] CRC32
10 83,6 [91A3C873] E2E760A CRC32
11 87,9 1DA06E0 [D55E1981] CRC32
12 91,1 [34CFE7CC] [5A10B998] CRC32
13 79,0 [3171D670] [4EABA56B] CRC32
14 100,0 [62FEA5B6] [83B17EE0] CRC32
15 100,0 [C7B5737F] [085BB69D] CRC32
16 97,9 [C3D1B32F] [8FD8C22D] CRC32
17 69,6 [30FD3330] [7A539BE9] CRC32
18 94,6 [D27E700A] [1E6BE619] CRC32
19 92,8 [49734161] 017F970 CRC32
20 85,2 [E4E15ED7] [9DA5AA50] CRC32
21 100,0 [86CE23D1] [A6CEA701] CRC32
22 99,9 [D50550DB] [DD2BD908] CRC32
23 100,0 [742A0720] [C1072103] CRC32
24 80,3 [D68557FD] [70656706] CRC32
25 76,8 [68130ABE] [D2C886C4] CRC32
26 67,3 [5C624DC6] [2D7D2D51] CRC32

http://i68.fastpic.ru/big/2015/0922/4e/b4159298993495f583291abf9ebce94e.jpg

All thanks go to the original releaser

Download The Lovin' Spoonful - Anthology (1990):


DOWNLOAD LINKS:
Buy Premium To Support Me & Get Resumable Support & Max Speed


Links are Interchangeable - No Password - Single Extraction

 
 
 
Dear visitor, you went to the site as an unregistered user. We encourage you to register or enter the site under your name.
 
   
 
 (Votes #: 0)