2013Zone For Latest Downloads

 
     
 
Legal Downloads » Music » Fourplay - Energy (2008) {Heads Up}
Menu
Home Applications
Games Movies
Music TV Shows
Torrents Graphics

Sitemap

RSS
 
Advanced Search
Last News
Site Info
Top Contributors:
  1    supper88 32766
  2    admin 32646
  3    Whisky 10080
  4    Shark_ 8911
  5    creativelivenew 8706
  6    whathesupa 2799
  7    candymypost 840
  8    hvnteam 629
  9    vuong87 3


Articles:
  This Hour: 0
  Today: 15
  This Month: 15
  All Time: 515696


Torrents:
  Today: 0
  Yesterday: 0
  All Time: 156685


Membership:
  Registered Today :0
  This Hour:0
  This Month:0
  Total:14
  Banned:1

{online}
{inform_torrent}
Friend:
We Recomend
Trend
Trend
onlinemovies

Search In Site

Music : Fourplay - Energy (2008) {Heads Up}
 
http://i67.fastpic.ru/big/2015/0922/3d/13b93274870e26641a42f7b9b697183d.jpg

Fourplay - Energy (2008) {Heads Up}
EAC 1.0b2 | FLAC tracks level 8 | Cue+Log+M3U | Full Scans 600dpi | 423MB + 5% Recovery
Genre: Fusion, Smooth Jazz

"I always feel a special energy coming from all four corners of this group," says James, who originally came up with the album title. "This combination of passion and intensity is what keeps me coming back for more. The energy is multiplied by a factor of four. The title is a reflection of the various moods captured in the tracks," East adds. "Whether romantic or sophisticated, upbeat or mellow, each player brings his own unique energy to the music. That combination of energies reflects what this album is all about."

Track List
01. Fortune Teller 5:53
02. The Whistler 5:27
03. Ultralight 4:18
04. Cape Town 4:59
05. The Yes Club 5:10
06. Prelude For Lovers 3:10
07. Look Both Ways 6:39
08. Argentina 5:23
09. Comfort Zone 4:55
10. Sebastian 4:42

musicians
Bob James - keyboards
Larry Carlton - guitars
Nathan East - bass, vocals
Harvey Mason, Sr. - drums

guests
Marcel East - guitar, keyboards, programming, percussion
Esperanza Spalding - vocals
Sara East, Noah East, Elijah East - background vocals

Produced by Fourplay

Exact Audio Copy V1.0 beta 2 from 29. April 2011

EAC extraction logfile from 10. June 2011, 3:11

Fourplay / Energy

Used drive : HL-DT-STDVD-RAM GSA-H55N Adapter: 0 ID: 2

Read mode : Secure
Utilize accurate stream : Yes
Defeat audio cache : Yes
Make use of C2 pointers : No

Read offset correction

: 102
Overread into Lead-In and Lead-Out : Yes
Fill up missing offset samples with silence : Yes
Delete leading and trailing silent blocks : No
Null samples used in CRC calculations : Yes
Used interface
: Installed external ASPI interface
Gap handling
: Appended to previous track

Used output format : User Defined Encoder
Selected bitrate : 128 kBit/s
Quality : High
Add ID3 tag : No
Command line compressor : G:\Program Files\Exact Audio Copy\Encoder\flac.exe
Additional command line options : -V -8 -T "Genre=%genre%" -T "Artist=%artist%" -T "Title=%title%" -T "Album=%albumtitle%" -T "Date=%year%" -T "Tracknumber=%tracknr%" -T "Comment=EAC1.0b2 FLAC -8" %source%

TOC of the extracted CD Track | Start | Length | Start sector | End sector
--1 | 0:00.00 | 5:53.29 | 0 | 26503 2 | 5:53.29 | 5:26.38 | 26504 | 50991 3 | 11:19.67 | 4:17.48 | 50992 | 70314 4 | 15:37.40 | 4:58.58 | 70315 | 92722 5 | 20:36.23 | 5:09.39 | 92723 | 115936 6 | 25:45.62 | 3:09.52 | 115937 | 130163 7 | 28:55.39 | 6:38.40 | 130164 | 160053 8 | 35:34.04 | 5:22.68 | 160054 | 184271 9 | 40:56.72 | 4:54.74 | 184272 | 206395
10 | 45:51.71 | 4:42.19 | 206396 | 227564

Track 1 Filename F:\WAV\01 - Fortune Teller.wav Pre-gap length 0:00:02.00 Peak level 96.6 %
Extraction speed 5.1 X
Track quality 100.0 %
Test CRC 1AF2E487
Copy CRC 1AF2E487
Accurately ripped (confidence 12) [52D559AC] (AR v2)
Copy OK

Track 2 Filename F:\WAV\02 - The Whistler.wav Pre-gap length 0:00:03.08 Peak level 96.6 %
Extraction speed 5.7 X
Track quality 100.0 %
Test CRC 7EF32ED5
Copy CRC 7EF32ED5
Accurately ripped (confidence 12) [4C578704] (AR v2)
Copy OK

Track 3 Filename F:\WAV\03 - Ultralight.wav Pre-gap length 0:00:01.30 Peak level 96.6 %
Extraction speed 5.3 X
Track quality 99.9 %
Test CRC 2B0144D9
Copy CRC 2B0144D9
Accurately ripped (confidence 12) [2E72A5AF] (AR v2)
Copy OK

Track 4 Filename F:\WAV\04 - Cape Town.wav Pre-gap length 0:00:01.31 Peak level 96.6 %
Extraction speed 5.7 X
Track quality 99.9 %
Test CRC BB8D92F2
Copy CRC BB8D92F2
Accurately ripped (confidence 12) 3D36628 (AR v2)
Copy OK

Track 5 Filename F:\WAV\05 - The Yes Club.wav Pre-gap length 0:00:01.31 Peak level 96.6 %
Extraction speed 6.7 X
Track quality 100.0 %
Test CRC 61784713
Copy CRC 61784713
Accurately ripped (confidence 12) [0B0DB1E9] (AR v2)
Copy OK

Track 6 Filename F:\WAV\06 - Prelude For Lovers.wav Pre-gap length 0:00:04.33 Peak level 96.6 %
Extraction speed 6.6 X
Track quality 100.0 %
Test CRC A10911E7
Copy CRC A10911E7
Accurately ripped (confidence 12) [13268529] (AR v2)
Copy OK

Track 7 Filename F:\WAV\07 - Look Both Ways.wav Pre-gap length 0:00:00.39 Peak level 96.6 %
Extraction speed 7.7 X
Track quality 100.0 %
Test CRC 364C39A9
Copy CRC 364C39A9
Accurately ripped (confidence 12) [C64EFC5F] (AR v2)
Copy OK

Track 8 Filename F:\WAV\08 - Argentina.wav Pre-gap length 0:00:04.37 Peak level 96.6 %
Extraction speed 7.8 X
Track quality 100.0 %
Test CRC B4A784B3
Copy CRC B4A784B3
Accurately ripped (confidence 12) [2848DF17] (AR v2)
Copy OK

Track 9 Filename F:\WAV\09 - Comfort Zone.wav Pre-gap length 0:00:03.00 Peak level 96.6 %
Extraction speed 8.1 X
Track quality 100.0 %
Test CRC A7C6B969
Copy CRC A7C6B969
Accurately ripped (confidence 12) [7050C0FB] (AR v2)
Copy OK

Track 10 Filename F:\WAV\10 - Sebastian.wav Pre-gap length 0:00:00.54 Peak level 96.6 %
Extraction speed 7.8 X
Track quality 100.0 %
Test CRC 01B5E65A
Copy CRC 01B5E65A
Accurately ripped (confidence 12) [E75B5388] (AR v2)
Copy OK

All tracks accurately ripped

No errors occurred

End of status report

==== Log checksum B8EB7E096B0BBDDBADE4C32DBE84D0564F2E2036956E5D38868D6B912C77ACC7 ====

Analyzed: Fourplay / Energy

DR Peak RMS Duration Track

DR10 -0.30 dB -12.82 dB 5:53 01-Fortune Teller
DR10 -0.30 dB -12.21 dB 5:27 02-The Whistler
DR10 -0.30 dB -12.20 dB 4:18 03-Ultralight
DR9 -0.30 dB -11.37 dB 4:59 04-Cape Town
DR10 -0.30 dB -13.00 dB 5:10 05-The Yes Club
DR9 -0.30 dB -12.11 dB 3:10 06-Prelude For Lovers
DR10 -0.30 dB -12.91 dB 6:39 07-Look Both Ways
DR8 -0.30 dB -10.36 dB 5:23 08-Argentina
DR8 -0.30 dB -9.68 dB 4:55 09-Comfort Zone
DR9 -0.30 dB -12.03 dB 4:42 10-Sebastian

Number of tracks: 10
Official DR value: DR9

Samplerate: 44100 Hz
Channels: 2
Bits per sample: 16
Bitrate: 791 kbps
Codec: FLAC

http://i70.fastpic.ru/big/2015/0922/2e/8433f8d11247cec818c5813d38c4af2e.jpg

http://i71.fastpic.ru/big/2015/0922/4d/ef75be5f911770e324d379472775864d.jpg

http://i68.fastpic.ru/big/2015/0922/24/376700900604035502c98b0cca38fc24.jpg

Rip by simple.i


DOWNLOAD LINKS:
Buy Premium To Support Me & Get Resumable Support & Max Speed


Links are Interchangeable - No Password - Single Extraction

 
 
 
Dear visitor, you went to the site as an unregistered user. We encourage you to register or enter the site under your name.
 
   
 
 (Votes #: 0)