2013Zone For Latest Downloads

 
     
 
Legal Downloads » Music » King Crimson - Starless And Bible Black (1974) (HDCD)
Menu
Home Applications
Games Movies
Music TV Shows
Torrents Graphics

Sitemap

RSS
 
Advanced Search
Last News
Site Info
Top Contributors:
  1    supper88 32766
  2    admin 32651
  3    Whisky 10080
  4    Shark_ 8911
  5    creativelivenew 8706
  6    whathesupa 2799
  7    candymypost 840
  8    hvnteam 629
  9    vuong87 3


Articles:
  This Hour: 0
  Today: 0
  This Month: 12
  All Time: 515681


Torrents:
  Today: 0
  Yesterday: 0
  All Time: 156685


Membership:
  Registered Today :0
  This Hour:0
  This Month:0
  Total:14
  Banned:1

{online}
{inform_torrent}
Friend:
We Recomend
Trend
Trend
onlinemovies

Search In Site

Music : King Crimson - Starless And Bible Black (1974) (HDCD)
 
http://i67.fastpic.ru/big/2015/0922/17/8481504ea9486d3b5fea757b37d3e517.jpg

King Crimson - Starless And Bible Black (1974) (HDCD)
Rock | 1cd | EAC Rip | Flac + Cue + Log | covers
Discipline Global Mobile, DGM0506 | rem: 2004 | 410Mb

Starless and Bible Black is even more powerful and daring than its predecessor, Larks' Tongues in Aspic, with jarring tempo shifts, explosive guitar riffs, and soaring, elegant, and delicate violin and Mellotron parts scattered throughout its 41 minutes, often all in the same songs. The album was on the outer fringes of accessible progressive rock, with enough musical ideas explored to make Starless and Bible Black more than background for tripping the way Emerson, Lake & Palmer's albums were used.
"The Night Watch," a song about a Rembrandt painting, was, incredibly, a single release, although it was much more representative of the sound that Crimson was abandoning than where it was going in 1973-1974. More to that point were the contents of side two of the original LP, a pair of instrumentals that threw the group's hardest sounds right in the face of the listener, and gained some converts in the process. [Starless and Bible Black was remastered again for CD in the summer of 2000, in significantly improved sound that brought out the details (and surprising lyricism) of much of the material in far greater detail. The booklet included with the remastered version is not as impressive as some of the rest of the series entries in terms of information, but has great photos.] ~Allmusic

Track listing
01. The Great Deceiver (4:03)
02. Lament (4:05)
03. We'll Let You Know (3:42)
04. The Night Watch (4:40)
05. Trio (5:39)
06. The Mincer (4:09)
07. Starless And Bible Black (9:11)
08. Fracture (11:12)
~ (46:40)

Personnel
- Robert Fripp - guitar, mellotron, devices, electric piano
- John Wetton - bass, vocals
- Bill Bruford - drums, percussion
- David Cross - violin, viola, mellotron, electric piano

Exact Audio Copy V1.0 beta 3 from 29. August 2011

Отчёт EAC об извлечении, выполненном 26. августа 2013, 0:11

KING CRIMSON / Starless And Bible Black

Дисковод: TSSTcorpCDDVDW SH-224DB Adapter: 4 ID: 1

Режим чтения : Достоверность
?спользование точного потока : Да
Отключение кэ?а аудио : Да
?спользование указателей C2 : Нет

Коррекция смещения при чтении : 6
Способность читать области Lead-in и Lead-out : Нет
Заполнение пропущенных сэмплов ти?иной : Да
Удаление блоков с ти?иной в начале и конце : Нет
При вычислениях CRC использовались нулевые сэмплы : Да
?нтерфейс : Встроенный Win32-интерфейс для Win NT/2000

Выходной формат : Внутренние WAV-операции
Формат сэмплов : 44.100 Гц; 16 бит; стерео

TOC извлечённого CD Трек | Старт | Длительность | Начальный сектор | Конечный сектор

1 | 0:00.00 | 4:02.65 | 0 | 18214
2 | 4:02.65 | 4:05.37 | 18215 | 36626
3 | 8:08.27 | 3:41.65 | 36627 | 53266
4 | 11:50.17 | 4:39.40 | 53267 | 74231
5 | 16:29.57 | 5:39.08 | 74232 | 99664
6 | 22:08.65 | 4:08.60 | 99665 | 118324
7 | 26:17.50 | 9:10.47 | 118325 | 159621
8 | 35:28.22 | 11:12.05 | 159622 | 210026

Характеристики диапазона извлечения и сообщения об о?ибках

Выбранный диапазон ?мя файла D:\TEMP\KING CRIMSON - 1974 - Starless And Bible Black [2004 24-bit remaster, HDCD, DGM0506].wav Пиковый уровень 90.1 %
Скорость извлечения 7.0 X
Качество диапазона 100.0 %
CRC теста B3A35926
CRC копии B3A35926
Копирование... OK

О?ибок не произо?ло


AccurateRip: сводка

Трек 1 : извлечено точно (доверие 5) [408EED27] (AR v2)
Трек 2 : извлечено точно (доверие 5) [59069D43] (AR v2)
Трек 3 : извлечено точно (доверие 5) [880281B3] (AR v2)
Трек 4 : извлечено точно (доверие 5) [D6ECAF54] (AR v2)
Трек 5 : извлечено точно (доверие 5) [AAAD99ED] (AR v2)
Трек 6 : извлечено точно (доверие 5) [1ABBD6DB] (AR v2)
Трек 7 : извлечено точно (доверие 5) [5110D5ED] (AR v2)
Трек 8 : извлечено точно (доверие 5) [100C9766] (AR v2)

Все треки извлечены точно

Конец отчёта

[CUETools log; Date: 2015.09.21. 9:47:25; Version: 2.1.5]
HDCD: peak extend: none, transient filter: none, gain: -4,0dB..0,0dB
[CTDB TOCID: FXAPiJW8VuyaPEdeFUy8_2brr8A-] found.
Track | CTDB Status
1 | (165/194) Accurately ripped
2 | (165/194) Accurately ripped
3 | (165/194) Accurately ripped
4 | (165/194) Accurately ripped
5 | (165/194) Accurately ripped
6 | (165/194) Accurately ripped
7 | (162/194) Accurately ripped
8 | (163/194) Accurately ripped
[AccurateRip ID: 000bbfbc-00513cf8-590af008] found.
Track [ CRC | V2 ] Status
01 [9b78a887|408eed27] (011+011/358) Accurately ripped
02 [6725212d|59069d43] (011+011/354) Accurately ripped
03 [eacdc14a|880281b3] (011+011/354) Accurately ripped
04 9df751a|d6ecaf54 (011+011/357) Accurately ripped
05 [847c6373|aaad99ed] (011+011/348) Accurately ripped
06 [d0fbd724|1abbd6db] (011+011/353) Accurately ripped
07 [68f67a08|5110d5ed] (011+011/353) Accurately ripped
08 [ece38552|100c9766] (011+011/351) Accurately ripped
Offsetted by -565:
01 [2ae23e20] (011/358) Accurately ripped
02 [806ddf9a] (010/354) Accurately ripped
03 [e6f032c0] (011/354) Accurately ripped
04 [19822e7d] (011/357) Accurately ripped
05 [047748d4] (010/348) Accurately ripped
06 [dad467a7] (011/353) Accurately ripped
07 [984f1169] (011/353) Accurately ripped
08 [98dc0573] (011/351) Accurately ripped
Offsetted by 18:
01 [eb509e15] (029/358) Accurately ripped
02 [19473d76] (029/354) Accurately ripped
03 [91e70a20] (029/354) Accurately ripped
04 [3148366f] (029/357) Accurately ripped
05 [c99ec076] (028/348) Accurately ripped
06 [5b7eb017] (029/353) Accurately ripped
07 [338cc5b8] (029/353) Accurately ripped
08 [45419e49] (030/351) Accurately ripped
Offsetted by 32:
01 [4a3761d0] (006/358) Accurately ripped
02 [7090e265] (006/354) Accurately ripped
03 d77c79b (006/354) Accurately ripped
04 [c27dfcb4] (006/357) Accurately ripped
05 [325e249a] (006/348) Accurately ripped
06 [de1aae7f] (006/353) Accurately ripped
07 [810c57d9] (006/353) Accurately ripped
08 [e8681806] (006/351) Accurately ripped
Offsetted by 86:
01 [5362a62d] (008/358) Accurately ripped
02 [814bb1dc] (008/354) Accurately ripped
03 [2e691719] (008/354) Accurately ripped
04 [23a6c31a] (008/357) Accurately ripped
05 [77650605] (008/348) Accurately ripped
06 [16135ff0] (008/353) Accurately ripped
07 e10b726 (007/353) Accurately ripped
08 [f56398c6] (007/351) Accurately ripped
Offsetted by 104:
01 [23827136] (096/358) Accurately ripped
02 [6bdc2c30] (094/354) Accurately ripped
03 [2ec7b151] (094/354) Accurately ripped
04 [985a7dd7] (094/357) Accurately ripped
05 [18ab52ae] (090/348) Accurately ripped
06 [87dd722d] (093/353) Accurately ripped
07 [7b6ae120] (093/353) Accurately ripped
08 [33d7b072] (089/351) Accurately ripped
Offsetted by 62:
01 [dd2f8d3b] (002/358) Accurately ripped
02 [2bea2b20] (000/354) No match (V2 was not tested)
03 [d6cebac4] (000/354) No match (V2 was not tested)
04 [9e5e9e6c] (002/357) Accurately ripped
05 [086d94dc] (000/348) No match (V2 was not tested)
06 [9627a4ba] (000/353) No match (V2 was not tested)
07 [d8120b6e] (000/353) No match (V2 was not tested)
08 [d1d08b01] (000/351) No match (V2 was not tested)

Track Peak [ CRC32 ] [W/O NULL] [ LOG ]
-- 90,1 3A35926 [3CA5CEFE] CRC32
01 90,1 [720EE46A] [5EF62065]
02 90,1 495A759 [3A4E0CC0]
03 90,1 [5BE9DD06] [2DD9AB14]
04 82,5 F2D15DB [AA762DC3]
05 57,5 [EBCAEFD0] [C3C3B7C4]
06 83,1 [1A0021A1] [2D444B27]
07 90,1 [FDAC3562] [0CAB36E0]
08 90,1 [DDD9CDA9] [3B69E729]

Thx to spAceLover
password: asd
DOWNLOAD LINKS:
Buy Premium To Support Me & Get Resumable Support & Max Speed


Links are Interchangeable - No Password - Single Extraction

 
 
 
Dear visitor, you went to the site as an unregistered user. We encourage you to register or enter the site under your name.
 
   
 
 (Votes #: 0)