2013Zone For Latest Downloads

 
     
 
Legal Downloads » Music » Duran Duran - iHeartRadio Music Festival 2015 [WEB DL, 720p]
Menu
Home Applications
Games Movies
Music TV Shows
Torrents Graphics

Sitemap

RSS
 
Advanced Search
Last News
Site Info
Top Contributors:
  1    supper88 32766
  2    admin 32651
  3    Whisky 10080
  4    Shark_ 8911
  5    creativelivenew 8706
  6    whathesupa 2799
  7    candymypost 840
  8    hvnteam 629
  9    vuong87 3


Articles:
  This Hour: 0
  Today: 0
  This Month: 13
  All Time: 515682


Torrents:
  Today: 0
  Yesterday: 0
  All Time: 156685


Membership:
  Registered Today :0
  This Hour:0
  This Month:0
  Total:14
  Banned:1

{online}
{inform_torrent}
Friend:
We Recomend
Trend
Trend
onlinemovies

Search In Site

ad1

Music : Duran Duran - iHeartRadio Music Festival 2015 [WEB DL, 720p]
 
http://i71.fastpic.ru/big/2015/0922/b4/7589d72e9bf2207f626e036bb460c5b4.jpg

Duran Duran - iHeartRadio Music Festival 2015
TS, MPEG4 Video (H264) 1280x720 30fps | AAC 44100Hz stereo 120kbps
Rock / New Wave | 00:31:46 | ~ 1523 Mb

~ Duran Duran performing on September 18, 2015 at iHeartRadio Music Festival ~


"The iHeartRadio Music Festival is a two-day festival held each September since 2011 by iHeartRadio at the MGM Grand Garden Arena in Paradise, Nevada, (in 2013 the Village Stage was added). The 2011 edition was broadcast by VH1, while the 2012, 2013, and 2014 editions were broadcast by The CW.[1][2][3][4] The shows get subsequent replays on Palladia.

The two-day festival was expanded in 2013 with the addition of the iHeartRadio "village", a separate event free to attend for those who won tickets to the main event or available for separate purchase. According to Billboard, the main festival "showcases some of the most well-established artists in the genre" while the village showcases newer, rising acts. In 2013, the magazine wrote that the festival had "quickly established itself as a home to every major artist.


~ wiki
"


http://i69.fastpic.ru/big/2015/0922/b2/134c99332707eaa6a1f617ddb27c06b2.jpg

Duran Duran at Wiki | Duran Duran at Discogs | Duran Duran at Allmusic | Duran Duran HomePage

***********
Duran Duran - iHeartRadio Music Festival 2015:


Tracklist:

01. The Wild Boys
02. Hungry Like the Wolf
03. Notorious
04. Ordinary World
05. Rio

General
ID : 1 (0x1)
Complete name : G:\UP\Mix\Duran Duran - iHeartRadio Music Festival 2015\Duran Duran - iHeartRadio Music Festival 2015.ts
Format
: MPEG-TS
File size
: 1.41 GiB
Duration
: 31mn 45s
Overall bit rate mode : Variable
Overall bit rate : 6 375 Kbps

Video
ID : 481 (0x1E1)
Menu ID
: 1 (0x1)
Format
: AVC
Format/Info
: Advanced Video Codec
Format profile : [email protected]
Format settings, CABAC : Yes
Format settings, ReFrames : 2 frames
Format settings, GOP : M=3, N=60
Codec ID
: 27
Duration
: 31mn 46s
Bit rate mode : Constant
Bit rate
: 6 000 Kbps
Width
: 1 280 pixels
Height
: 720 pixels
Display aspect ratio : 16:9
Frame rate
: 30.000 fps
Color space
: YUV
Chroma subsampling

: 4:2:0
Bit depth
: 8 bits
Scan type
: Progressive
Bits/(Pixel*Frame)

: 0.217
Stream size
: 1.32 GiB (93%)

Audio
ID : 482 (0x1E2)
Menu ID
: 1 (0x1)
Format
: AAC
Format/Info
: Advanced Audio Codec
Format version : Version 4
Format profile : LC
Muxing mode
: ADTS
Codec ID
: 15
Duration
: 31mn 45s
Bit rate mode : Variable
Bit rate
: 128 Kbps
Channel(s)
: 2 channels
Channel positions: Front: L R
Sampling rate : 44.1 KHz
Compression mode : Lossy
Stream size
: 29.1 MiB (2%)

http://i65.fastpic.ru/big/2015/0922/0d/ecf52ecb57dcebd5d30230beb86a590d.jpg

http://i70.fastpic.ru/big/2015/0922/61/4dfe90b86d40260f5ea335ffb2607661.jpg

http://i66.fastpic.ru/big/2015/0922/9e/8b4abbd5cdcb3a504b374aac47d23f9e.jpg

http://i69.fastpic.ru/big/2015/0922/c0/9fc5037e4e4b9346f7dfed6e7258a5c0.jpg

http://i66.fastpic.ru/big/2015/0922/d4/0b982c632bdd932b22af7c4603e6dfd4.jpg

http://i65.fastpic.ru/big/2015/0922/72/6131016d56cc3d0609daef43d1338572.jpg

DOWNLOAD LINKS:
Buy Premium To Support Me & Get Resumable Support & Max Speed


Links are Interchangeable - No Password - Single Extraction

 
 
 
Dear visitor, you went to the site as an unregistered user. We encourage you to register or enter the site under your name.
 
   
 
 (Votes #: 0)