2013Zone For Latest Downloads

 
     
 
Legal Downloads » Music » Carola - Runaway (1986) [1994, Remastered Reissue]
Menu
Home Applications
Games Movies
Music TV Shows
Torrents Graphics

Sitemap

RSS
 
Advanced Search
Last News
Site Info
Top Contributors:
  1    supper88 32766
  2    admin 32671
  3    Whisky 10080
  4    Shark_ 8911
  5    creativelivenew 8706
  6    whathesupa 2799
  7    candymypost 840
  8    hvnteam 629
  9    vuong87 3


Articles:
  This Hour: 0
  Today: 0
  This Month: 20
  All Time: 515636


Torrents:
  Today: 0
  Yesterday: 0
  All Time: 156702


Membership:
  Registered Today :0
  This Hour:0
  This Month:0
  Total:14
  Banned:1

{online}
{inform_torrent}
Friend:
We Recomend
Trend
Trend

Search In Site

Music : Carola - Runaway (1986) [1994, Remastered Reissue]
 
http://i72.fastpic.ru/big/2015/0928/26/027baaf985c5166beaa925ce5cf61026.jpg

Carola - Runaway (1986) [1994, Remastered Reissue]
Pop, Euro-Pop, Synth-Pop, Electronic | EAC Rip | FLAC, Img+CUE + LOG + Full Artwork (PNG) | 37:44 Min | 304,28 Mb
Label: Polydor (Germany) / PolyGram Sweden / Universal | Released: 1994 (2009)

"
Runaway is an album from Swedish singer Carola Häggkvist, released on 12 May 1986 in Sweden and Norway. The album was produced by Maurice Gibb and written by him together with brothers Robin and Barry Gibb otherwise known as the Bee Gees. On the album charts, the album peaked at #2 in Sweden, #9 in Norway.
"

http://i72.fastpic.ru/big/2015/0928/47/23f22e737a1e483b64ed6ab1fef66847.jpg

http://i65.fastpic.ru/big/2015/0928/c4/ab490ab41ff274cadcf4b0bf680a7bc4.jpg


Release of the album: 1986, May, 12 [LP Polydor, Cat.# 829 298-1, Scandinavia]
Release of this CD: 1994/(Re-press - 2009, February, 17) [CD Polydor (Germany)/(Universal (EU)), Cat.# 829 298-2 / UPC: 042282929822]
℗ 1986 Polydor International GmbH, Hamburg; © 1994 PolyGram Sweden

Producer - Maurice Gibb
Backing Vocals - Efva Nyström, Maurice Gibb, Robin Gibb
Engineers - Dennis Hetzendorfer & Scott Glasel
Horns - Ed Calle
Keyboards, Programmed By [Fairlight] - Rhett Lawrence
Synthesizer - Maurice Gibb
Photography By - Tim O'Sullivan


Tracklist:

01. Radiate (03:17)
(Maurice Gibb, Robin Gibb)
02. The Runaway (03:23)
(Maurice Gibb, Robin Gibb)
03. Brand New Heart (03:39)
(Maurice Gibb, Robin Gibb)
04. Spread Your Wings (For Your Love) (03:18)
(Barry, Robin & Maurice Gibb)
05. Nature Of The Beast (03:46)
(Maurice Gibb, Robin Gibb)
06. When Two Worlds Collide (03:30)
(Barry, Robin & Maurice Gibb)
07. (We Are) Atomic (04:17)
(Maurice Gibb, Robin Gibb)
08. Lost In The Crowd (04:39)
(Barry, Robin & Maurice Gibb)
09. So Far So Good (03:42)
(Maurice Gibb, Rhett Lawrence, Robin Gibb)
10. Everlasting Love (04:13)
(Maurice Gibb, Rhett Lawrence, Robin Gibb)

Exact Audio Copy V0.99 prebeta 5 from 4. May 2009

EAC extraction logfile from 22. February 2010, 1:42

Carola / Runaway

Used drive : PIONEER DVD-RW DVR-112D Adapter: 2 ID: 0

Read mode : Secure
Utilize accurate stream : Yes
Defeat audio cache : Yes
Make use of C2 pointers : No

Read offset correction

: 48
Overread into Lead-In and Lead-Out : No
Fill up missing offset samples with silence : Yes
Delete leading and trailing silent blocks : No
Null samples used in CRC calculations : Yes
Used interface
: Installed external ASPI interface

Used output format : User Defined Encoder
Selected bitrate : 1024 kBit/s
Quality : High
Add ID3 tag : No
Command line compressor : C:\Program Files (x86)\Exact Audio Copy\Flac\flac.exe
Additional command line options : -5 -V -T "ARTIST=%a" -T "TITLE=%t" -T "ALBUM=%g" -T "DATE=%y" -T "TRACKNUMBER=%n" -T "GENRE=%m" -T "COMMENT=EAC FLAC -5" %s

TOC of the extracted CD Track | Start | Length | Start sector | End sector
--1 | 0:00.32 | 3:16.58 | 32 | 14789 2 | 3:17.15 | 3:23.25 | 14790 | 30039 3 | 6:40.40 | 3:39.17 | 30040 | 46481 4 | 10:19.57 | 3:18.00 | 46482 | 61331 5 | 13:37.57 | 3:45.50 | 61332 | 78256 6 | 17:23.32 | 3:30.28 | 78257 | 94034 7 | 20:53.60 | 4:16.45 | 94035 | 113279 8 | 25:10.30 | 4:39.35 | 113280 | 134239 9 | 29:49.65 | 3:42.35 | 134240 | 150924
10 | 33:32.25 | 4:12.70 | 150925 | 169894

Range status and errors

Selected range Filename F:\Carola - Runaway (1986)\Carola - Runaway.wav Peak level 99.9 %
Range quality 100.0 %
Test CRC 02AFFE25
Copy CRC 02AFFE25
Copy OK

No errors occurred


AccurateRip summary

Track 1 not present in database
Track 2 not present in database
Track 3 not present in database
Track 4 not present in database
Track 5 not present in database
Track 6 not present in database
Track 7 not present in database
Track 8 not present in database
Track 9 not present in database
Track 10 not present in database

None of the tracks are present in the AccurateRip database

End of status report

foobar2000 1.3.7 / Dynamic Range Meter 1.1.1
log date: 2015-09-26 19:14:34

Analyzed: Carola / Runaway

DR Peak RMS Duration Track

DR9 0.00 dB -11.41 dB 3:17 01-Radiate
DR8 0.00 dB -9.48 dB 3:23 02-The Runaway
DR9 0.00 dB -11.60 dB 3:39 03-Brand New Heart
DR9 0.00 dB -10.19 dB 3:18 04-Spread Your Wings (For Your Love)
DR8 0.00 dB -11.07 dB 3:46 05-Nature Of The Beast
DR8 0.00 dB -10.13 dB 3:30 06-When Two Worlds Collide
DR9 0.00 dB -10.94 dB 4:17 07-(We Are) Atomic
DR8 0.00 dB -11.75 dB 4:39 08-Lost In The Crowd
DR9 0.00 dB -11.13 dB 3:42 09-So Far So Good
DR8 0.00 dB -10.59 dB 4:13 10-Everlasting Love

Number of tracks: 10
Official DR value: DR9

Samplerate: 44100 Hz
Channels: 2
Bits per sample: 16
Bitrate: 1037 kbps
Codec: FLAC

All thanks to - bvstudio

password: BlondStyle


DOWNLOAD LINKS:
Buy Premium To Support Me & Get Resumable Support & Max Speed


Links are Interchangeable - No Password - Single Extraction

 
 
 
Dear visitor, you went to the site as an unregistered user. We encourage you to register or enter the site under your name.
 
   
 
 (Votes #: 0)