2013Zone For Latest Downloads

 
     
 
Legal Downloads » Music » Yves Rousseau Quartet - Akasha (2015) {Abalone}
Menu
Home Applications
Games Movies
Music TV Shows
Torrents Graphics

Sitemap

RSS
 
Advanced Search
Last News
Site Info
Top Contributors:
  1    supper88 32766
  2    admin 32671
  3    Whisky 10080
  4    Shark_ 8911
  5    creativelivenew 8706
  6    whathesupa 2799
  7    candymypost 840
  8    hvnteam 629
  9    vuong87 3


Articles:
  This Hour: 20
  Today: 20
  This Month: 78
  All Time: 515636


Torrents:
  Today: 0
  Yesterday: 0
  All Time: 156702


Membership:
  Registered Today :0
  This Hour:0
  This Month:0
  Total:14
  Banned:1

{online}
{inform_torrent}
Friend:
We Recomend
Trend
Trend
Ad1

Search In Site

Music : Yves Rousseau Quartet - Akasha (2015) {Abalone}
 
http://i70.fastpic.ru/big/2015/0928/d6/162b6d2d14d5a798c9dcc59b9a6fe7d6.jpg

Yves Rousseau Quartet - Akasha (2015) {Abalone}
EAC 1.0b3 | FLAC tracks level 8 | Cue+Log+M3U | Full Scans 300dpi | 341MB + 5% Recovery
Genre: Jazz, Avant-Garde Jazz

"Yves Rousseau is one of the leaders of the french and european jazz scene. Among his various activities, he has managed for more than ten years, as head of his quartet, a work of writing and improvisation at the outpost of jazz and new music styles. With an original orchestration that gives to this formation its so unsual sound. It unites 4 musicians with affirmed personnality in touch with various musics like jazz, of course, but also baroque music, song, without neglecting the major composers of the 20th centuary... The result is a wide variety of melodies, tempi, nuances, choices in the timbres and in the modes of play which have a single quality and aim to solicitate the publics imaginative."

Track List
01. L'eau, Pt. 1 (6:41)
02. L'eau, Pt. 2 (4:43)
03. L'eau, Pt. 3 (4:03)
04. La terre (6:31)
05. Le feu, Pt. 1 (2:52)
06. Le feu, Pt. 2 (9:41)
07. Ether (4:46)
08. L'air, Pt. 1 (8:41)
09. L'air, Pt. 2 (7:06)

musicians
Yves Rousseau - double bass
Christophe Marguet - drums
Jean-Marc Larche - alto and soprano saxes
Regis Huby - violins

Exact Audio Copy V1.0 beta 3 from 29. August 2011

EAC extraction logfile from 19. March 2015, 15:06

Yves Rousseau / Akasha

Used drive : PHILIPS SPD3400CC Adapter: 0 ID: 0

Read mode : Secure
Utilize accurate stream : Yes
Defeat audio cache : Yes
Make use of C2 pointers : No

Read offset correction

: 6
Overread into Lead-In and Lead-Out : No
Fill up missing offset samples with silence : Yes
Delete leading and trailing silent blocks : No
Null samples used in CRC calculations : Yes
Used interface
: Native Win32 interface for Win NT & 2000
Gap handling
: Appended to previous track

Used output format : User Defined Encoder
Selected bitrate : 1024 kBit/s
Quality : High
Add ID3 tag : No
Command line compressor : C:\Program Files (x86)\Exact Audio Copy\FLAC\FLAC.EXE
Additional command line options : -8 -V -T "ARTIST=%artist%" -T "TITLE=%title%" -T "ALBUM=%albumtitle%" -T "DATE=%year%" -T "TRACKNUMBER=%tracknr%" -T "TOTALTRACKS=%numtracks%" -T "GENRE=%genre%" -T "ALBUM ARTIST=%albumartist%" -T "ALBUMARTIST=%albumartist%" -T "COMMENT=EAC V1.0 beta 3, Secure Mode, Test & Copy, AccurateRip, FLAC -8" %source%

TOC of the extracted CD Track | Start | Length | Start sector | End sector
--1 | 0:00.00 | 6:41.56 | 0 | 30130 2 | 6:41.56 | 4:43.04 | 30131 | 51359 3 | 11:24.60 | 4:03.10 | 51360 | 69594 4 | 15:27.70 | 6:31.20 | 69595 | 98939 5 | 21:59.15 | 2:52.68 | 98940 | 111907 6 | 24:52.08 | 9:41.25 | 111908 | 155507 7 | 34:33.33 | 4:46.27 | 155508 | 176984 8 | 39:19.60 | 8:41.29 | 176985 | 216088 9 | 48:01.14 | 7:06.60 | 216089 | 248098

Track 1 Filename C:\Users\Maison\Downloads\Rips\01 - L'Eau Part I.wav Pre-gap length 0:00:02.00 Peak level 98.7 %
Extraction speed 1.9 X
Track quality 100.0 %
Test CRC 1A201696
Copy CRC 1A201696
Track not present in AccurateRip database
Copy OK

Track 2 Filename C:\Users\Maison\Downloads\Rips\02 - L'Eau Part II.wav Peak level 98.7 %
Extraction speed 2.1 X
Track quality 100.0 %
Test CRC 716BEB76
Copy CRC 716BEB76
Track not present in AccurateRip database
Copy OK

Track 3 Filename C:\Users\Maison\Downloads\Rips\03 - L'Eau Part III.wav Peak level 98.7 %
Extraction speed 2.3 X
Track quality 100.0 %
Test CRC 9BB2DB84
Copy CRC 9BB2DB84
Track not present in AccurateRip database
Copy OK

Track 4 Filename C:\Users\Maison\Downloads\Rips\04 - La Terre.wav Peak level 98.7 %
Extraction speed 2.6 X
Track quality 100.0 %
Test CRC 436D8FAE
Copy CRC 436D8FAE
Track not present in AccurateRip database
Copy OK

Track 5 Filename C:\Users\Maison\Downloads\Rips\05 - Le Feu Part I.wav Peak level 98.7 %
Extraction speed 2.5 X
Track quality 100.0 %
Test CRC 3F696D50
Copy CRC 3F696D50
Track not present in AccurateRip database
Copy OK

Track 6 Filename C:\Users\Maison\Downloads\Rips\06 - Le Feu Part II.wav Peak level 98.7 %
Extraction speed 2.8 X
Track quality 99.9 %
Test CRC 0485EB33
Copy CRC 0485EB33
Track not present in AccurateRip database
Copy OK

Track 7 Filename C:\Users\Maison\Downloads\Rips\07 - Ether.wav Peak level 98.7 %
Extraction speed 3.1 X
Track quality 100.0 %
Test CRC 45B9DCC4
Copy CRC 45B9DCC4
Track not present in AccurateRip database
Copy OK

Track 8 Filename C:\Users\Maison\Downloads\Rips\08 - L'Air Part I.wav Peak level 98.7 %
Extraction speed 3.5 X
Track quality 100.0 %
Test CRC F7093C21
Copy CRC F7093C21
Track not present in AccurateRip database
Copy OK

Track 9 Filename C:\Users\Maison\Downloads\Rips\09 - L'Air Part II.wav Peak level 98.7 %
Extraction speed 3.7 X
Track quality 100.0 %
Test CRC E92D5C4E
Copy CRC E92D5C4E
Track not present in AccurateRip database
Copy OK

None of the tracks are present in the AccurateRip database

No errors occurred

End of status report

==== Log checksum A601009A31BEF6D70553A7CC7DE78DC52D51664A875A61818236D5AB3D186F3B ====

Analyzed: Yves Rousseau / Akasha

DR Peak RMS Duration Track

DR8 -0.11 dB -11.75 dB 6:42 01-L'Eau Part I
DR14 -0.11 dB -18.85 dB 4:43 02-L'Eau Part II
DR9 -0.11 dB -10.64 dB 4:03 03-L'Eau Part III
DR13 -0.11 dB -16.44 dB 6:31 04-La Terre
DR11 -0.11 dB -13.77 dB 2:53 05-Le Feu Part I
DR10 -0.11 dB -15.30 dB 9:41 06-Le Feu Part II
DR11 -0.11 dB -14.94 dB 4:46 07-Ether
DR9 -0.11 dB -13.27 dB 8:41 08-L'Air Part I
DR8 -0.11 dB -11.40 dB 7:07 09-L'Air Part II

Number of tracks: 9
Official DR value: DR10

Samplerate: 44100 Hz
Channels: 2
Bits per sample: 16
Bitrate: 932 kbps
Codec: FLAC

http://i68.fastpic.ru/big/2015/0928/7c/1cda45ca1845d3918b4d838d5e41ce7c.jpg

http://i68.fastpic.ru/big/2015/0928/c9/5eadd604a496c97d9aad9461f5fddec9.jpg

http://i67.fastpic.ru/big/2015/0928/f8/19bf0df41c5766254933a4894b956df8.jpg

Rip by tdelyon


DOWNLOAD LINKS:
Buy Premium To Support Me & Get Resumable Support & Max Speed


Links are Interchangeable - No Password - Single Extraction



Ad2

 
 
 
Dear visitor, you went to the site as an unregistered user. We encourage you to register or enter the site under your name.
 
   
 
 (Votes #: 0)