2013Zone For Latest Downloads

 
     
 
Legal Downloads » Music » Jeff Beck - Who Else! (1999)
Menu
Home Applications
Games Movies
Music TV Shows
Torrents Graphics

Sitemap

RSS
 
Advanced Search
Last News
Site Info
Top Contributors:
  1    supper88 32766
  2    admin 32671
  3    Whisky 10080
  4    Shark_ 8911
  5    creativelivenew 8706
  6    whathesupa 2799
  7    candymypost 840
  8    hvnteam 629
  9    vuong87 3


Articles:
  This Hour: 0
  Today: 0
  This Month: 58
  All Time: 515616


Torrents:
  Today: 0
  Yesterday: 0
  All Time: 156702


Membership:
  Registered Today :0
  This Hour:0
  This Month:0
  Total:14
  Banned:1

{online}
{inform_torrent}
Friend:
We Recomend
Trend
Trend
Ad1

Search In Site

Music : Jeff Beck - Who Else! (1999)
 
http://i65.fastpic.ru/big/2015/0929/1e/f4fbc887807854765781106c48b6041e.jpg

Jeff Beck - Who Else! (1999)
EAC | FLAC | Image (Cue&Log) ~ 354 Mb (incl 5%) | Mp3 (CBR320) ~ 129 Mb (incl 5%) | Scans ~ 156 Mb
Genre: Instrumental Rock, Fusion, Jazz-Rock, Guitar Virtuoso | Label: Epic | # 493041 2 | Time: 00:53:59

"Who Else! is the seventh studio album by guitarist Jeff Beck, released on 16 March 1999 through Epic Records. The album reached No. 99 on the U.S. Billboard 200 and marks the end of a decade-long absence of original material from Beck since the release of Jeff Beck's Guitar Shop in 1989. Stylistically it showcases the first of his many forays into electronic and techno music, deviating notably from the straightforward instrumental rock and jazz fusion of previous albums."

"Jeff Beck has never shied away from following trends, at least as far as the musical styles he uses to back up his signature guitar sound. Back in 1969, in a sleeve note on Beck-Ola, he noted that he hadn't come up with "anything totally original," and instead made an album "with the accent on heavy music" at a time when the "heavy music" of the Jimi Hendrix Experience and Led Zeppelin was all the rage. In 1975, at the height of the jazz fusion movement, he made a jazz fusion album, and a good one, too. In both cases, however, the fashionable genres only provided a contemporary-sounding context in which his playing could flourish. If anyone has ever needed to be inspired to work, it's this recluse. So on his first regular studio album of new material in ten years, Who Else!, Beck, on at least a few tracks, solos over heavily percussive techno tracks reminiscent of Prodigy. But whether he's piercing such a rhythmic wall, rearranging the blues on the live "Blast From the East," or floating over an ambient soundscape on "Angel (Footsteps)," it's the same old Beck, with his stinging and sustained single-note melodies, his harmonics, his contrasting tones, his drive. And the man who played "Greensleeves" straight on Truth in 1968 is the same one who is faithful to the Irish air "Declan" here. Older fans who haven't been spending time at raves in recent years may want to program their CDs to avoid the electronica, but they should at least give those tunes a listen -- are they any heavier than the "heavy music" of 1969?

Review by William Ruhlmann, Allmusic.com
"




Tracklist:

01. What Mama Said (03:22)
02. Psycho Sam (04:55)
03. Brush With The Blues (06:24)
04. Blast From The East (04:46)
05. Space For The Papa (07:41)
06. Angel (Footsteps) (06:30)
07. THX138 (06:15)
08. Hip-Notica (04:40)
09. Even Odds (03:29)
10. Declan (04:02)
11. Another Place (01:48)


Exact Audio Copy V1.0 beta 6 from 9. April 2015

EAC extraction logfile from 20. September 2015, 2:12

Jeff Beck / Who Else!

Used drive : PLEXTOR DVDR PX-891SA Adapter: 0 ID: 2

Read mode : Secure
Utilize accurate stream : Yes
Defeat audio cache : Yes
Make use of C2 pointers : No

Read offset correction

: 6
Overread into Lead-In and Lead-Out : No
Fill up missing offset samples with silence : Yes
Delete leading and trailing silent blocks : No
Null samples used in CRC calculations : Yes
Used interface
: Installed external ASPI interface

Used output format : User Defined Encoder
Selected bitrate : 320 kBit/s
Quality : High
Add ID3 tag : No
Command line compressor : C:\Program Files\Exact Audio Copy 1.0 b6\Exact Audio Copy\Flac\flac.exe
Additional command line options : -V -8 -T "Date=%year%" -T "Genre=%genre%" %source%

TOC of the extracted CD Track | Start | Length | Start sector | End sector
--1 | 0:00.00 | 3:22.52 | 0 | 15201 2 | 3:22.52 | 4:55.48 | 15202 | 37374 3 | 8:18.25 | 6:24.60 | 37375 | 66234 4 | 14:43.10 | 4:46.62 | 66235 | 87746 5 | 19:29.72 | 7:41.65 | 87747 | 122386 6 | 27:11.62 | 6:30.73 | 122387 | 151709 7 | 33:42.60 | 6:15.32 | 151710 | 179866 8 | 39:58.17 | 4:40.40 | 179867 | 200906 9 | 44:38.57 | 3:29.13 | 200907 | 216594
10 | 48:07.70 | 4:02.65 | 216595 | 234809
11 | 52:10.60 | 1:48.12 | 234810 | 242921

Range status and errors

Selected range Filename L:\Lossless Temp\Jeff Beck\1999. Jeff Beck - Who Else! (1999 Epic Records, 493041 2, Austria)\Jeff Beck - Who Else!.wav Peak level 99.9 %
Extraction speed 8.1 X
Range quality 100.0 %
Test CRC C43C5183
Copy CRC C43C5183
Copy OK

No errors occurred


AccurateRip summary

Track 1 accurately ripped (confidence 97) [1C83B4F5] (AR v2)
Track 2 accurately ripped (confidence 98) [3269D281] (AR v2)
Track 3 accurately ripped (confidence 98) [0867312F] (AR v2)
Track 4 accurately ripped (confidence 98) [2D5098B3] (AR v2)
Track 5 accurately ripped (confidence 99) [3FDDDBFD] (AR v2)
Track 6 accurately ripped (confidence 99) [C122CBAE] (AR v2)
Track 7 accurately ripped (confidence 98) [391F978F] (AR v2)
Track 8 accurately ripped (confidence 96) [65749E09] (AR v2)
Track 9 accurately ripped (confidence 95) [864D4C56] (AR v2)
Track 10 accurately ripped (confidence 97) C63D99D (AR v2)
Track 11 accurately ripped (confidence 96) [18CEF6B8] (AR v2)

All tracks accurately ripped

End of status report

==== Log checksum A4F1D7CEF8BCCA939A807B1D0F833F7D9A6AEAA7DC0BD511A35CB34CD60625E4 ====

foobar2000 1.2 / Dynamic Range Meter 1.1.1
log date: 2015-09-28 14:09:22

Analyzed: Jeff Beck / Who Else!

DR Peak RMS Duration Track

DR9 0.00 dB -11.57 dB 3:23 01-What Mama Said
DR7 -0.03 dB -8.90 dB 4:56 02-Psycho Sam
DR10 0.00 dB -13.48 dB 6:25 03-Brush With The Blues
DR8 -0.02 dB -9.69 dB 4:47 04-Blast From The East
DR8 0.00 dB -10.48 dB 7:42 05-Space For The Papa
DR8 0.00 dB -11.17 dB 6:31 06-Angel (Footsteps)
DR7 0.00 dB -8.20 dB 6:15 07-THX138
DR9 0.00 dB -10.59 dB 4:41 08-Hip-Notica
DR8 -0.02 dB -9.57 dB 3:29 09-Even Odds
DR9 0.00 dB -11.64 dB 4:03 10-Declan
DR11 0.00 dB -13.03 dB 1:48 11-Another Place

Number of tracks: 11
Official DR value: DR9

Samplerate: 44100 Hz
Channels: 2
Bits per sample: 16
Bitrate: 874 kbps
Codec: FLAC

http://i69.fastpic.ru/big/2015/0929/b7/4da31db2266a2c0d70bc3e91424bf4b7.jpg

http://i71.fastpic.ru/big/2015/0929/81/53dbe34319ac7a107fa5742d962e7f81.jpg

All thanks to original releaser - Swamp Fox
Password: designol

DOWNLOAD LINKS:
Buy Premium To Support Me & Get Resumable Support & Max Speed


Links are Interchangeable - No Password - Single Extraction

Jeff Beck - Who Else! (1999) Fast Download


Ad2

 
 
 
Dear visitor, you went to the site as an unregistered user. We encourage you to register or enter the site under your name.
 
   
 
 (Votes #: 0)