2013Zone For Latest Downloads

 
     
 
Legal Downloads » Music » Procol Harum - A Whiter Shade Of Pale (1967) [1997, Repertoire REP 4666-WY]
Menu
Home Applications
Games Movies
Music TV Shows
Torrents Graphics

Sitemap

RSS
 
Advanced Search
Last News
Site Info
Top Contributors:
  1    supper88 32766
  2    admin 32671
  3    Whisky 10080
  4    Shark_ 8911
  5    creativelivenew 8706
  6    whathesupa 2799
  7    candymypost 840
  8    hvnteam 629
  9    vuong87 3


Articles:
  This Hour: 0
  Today: 0
  This Month: 40
  All Time: 515636


Torrents:
  Today: 0
  Yesterday: 0
  All Time: 156702


Membership:
  Registered Today :0
  This Hour:0
  This Month:0
  Total:14
  Banned:1

{online}
{inform_torrent}
Friend:
We Recomend
Trend
Trend

Search In Site

Music : Procol Harum - A Whiter Shade Of Pale (1967) [1997, Repertoire REP 4666-WY]
 
http://i60.fastpic.ru/big/2015/1021/28/6989429aca9a8866d4358416b941ad28.jpg

Procol Harum - A Whiter Shade Of Pale (1967)
EAC | Flac(Image) + Cue + Log & MP3 CBR 320Kbps
Repertoire, REP 4666-WY | Austria | ~ 168 or 121 Mb | Scans(600dpi, jpg) -> 79 Mb
Psychedelic Rock / Prog Rock / Classic Rock

"PH's debut album was supposedly rather hastily cut, but you would never know it by listening (mono recording notwithstanding); aside from the Title track (which wasn't even actually on the original Deram label PH debut LP), there are moments on this album that hold up so well today that they really make you wonder why this group never achieved the kind of stature their talent obviously merited..."


Tracklist:

01. A Whiter Shade Of Pale 4:09
02. Conquistador 2:40
03. She Wandered Through The Garden Fence 3:27
04. Something Following Me 3:41
05. Mabel 1:56
06. Cerdes 5:06
07. Christmas Camel 4:51
08. Kaleidoscope 2:56
09. Salad Days 3:41
10. Good Captain Clack 1:33
11. Repent Walpurgis 5:03
12. Lime Street Blues 3:01
13. Homburg 3:57
14. Monsieur Armand 2:25
15. Seem To Have The Blues All The Time 2:46

Exact Audio Copy V1.1 from 23. June 2015

EAC extraction logfile from 17. October 2015, 13:59

Procol Harum / A Whiter Shade Of Pale (REP 4666-WY)

Used drive : PLEXTOR DVDR PX-891SA Adapter: 1 ID: 0

Read mode : Secure
Utilize accurate stream : Yes
Defeat audio cache : Yes
Make use of C2 pointers : No

Read offset correction

: 6
Overread into Lead-In and Lead-Out : No
Fill up missing offset samples with silence : Yes
Delete leading and trailing silent blocks : No
Null samples used in CRC calculations : Yes
Used interface
: Native Win32 interface for Win NT & 2000

Used output format : User Defined Encoder
Selected bitrate : 128 kBit/s
Quality : High
Add ID3 tag : No
Command line compressor : C:\Program Files (x86)\Exact Audio Copy\Flac\flac.exe
Additional command line options : -V -8 -T "Genre=%genre%" -T "Artist=%artist%" -T "Title=%title%" -T "Album=%albumtitle%" -T "Date=%year%" -T "Tracknumber=%tracknr%" -T "Comment=%comment%" %source%

TOC of the extracted CD Track | Start | Length | Start sector | End sector
--1 | 0:00.00 | 4:09.37 | 0 | 18711 2 | 4:09.37 | 2:40.33 | 18712 | 30744 3 | 6:49.70 | 3:27.02 | 30745 | 46271 4 | 10:16.72 | 3:40.38 | 46272 | 62809 5 | 13:57.35 | 1:55.42 | 62810 | 71476 6 | 15:53.02 | 5:05.48 | 71477 | 94399 7 | 20:58.50 | 4:51.35 | 94400 | 116259 8 | 25:50.10 | 2:56.12 | 116260 | 129471 9 | 28:46.22 | 3:40.55 | 129472 | 146026
10 | 32:27.02 | 1:33.08 | 146027 | 153009
11 | 34:00.10 | 5:03.30 | 153010 | 175764
12 | 39:03.40 | 3:01.12 | 175765 | 189351
13 | 42:04.52 | 3:56.60 | 189352 | 207111
14 | 46:01.37 | 2:25.18 | 207112 | 218004
15 | 48:26.55 | 2:46.20 | 218005 | 230474

Range status and errors

Selected range Filename H:\dafnaplus\Procol Harum\A Whiter Shade Of Pale\Procol Harum - A Whiter Shade Of Pale (REP 4666-WY).wav Peak level 98.4 %
Extraction speed 7.4 X
Range quality 99.9 %
Test CRC C1A9203F
Copy CRC C1A9203F
Copy OK

No errors occurred


AccurateRip summary

Track 1 accurately ripped (confidence 27) [E528C897] (AR v2)
Track 2 accurately ripped (confidence 28) [9C805536] (AR v2)
Track 3 accurately ripped (confidence 29) [CAFC4456] (AR v2)
Track 4 accurately ripped (confidence 29) [75683952] (AR v2)
Track 5 accurately ripped (confidence 28) [1D1B3AD9] (AR v2)
Track 6 accurately ripped (confidence 28) [D3B30C70] (AR v2)
Track 7 accurately ripped (confidence 28) [1F56E3DD] (AR v2)
Track 8 accurately ripped (confidence 28) [6FEE1083] (AR v2)
Track 9 accurately ripped (confidence 28) A9F1F18 (AR v2)
Track 10 accurately ripped (confidence 28) [98ED3EFA] (AR v2)
Track 11 accurately ripped (confidence 28) [75C3D589] (AR v2)
Track 12 accurately ripped (confidence 28) [560AF09F] (AR v2)
Track 13 accurately ripped (confidence 27) [5DDBC4C7] (AR v2)
Track 14 accurately ripped (confidence 28) [04D48696] (AR v2)
Track 15 accurately ripped (confidence 28) [A571E78E] (AR v2)

All tracks accurately ripped

End of status report

- CUETools DB Plugin V2.1.6

[CTDB TOCID: dIUJ1lyD.ASpK7daFjvrwdhB830-] found
Submit result: dIUJ1lyD.ASpK7daFjvrwdhB830- has been confirmed
Track | CTDB Status
1 | (33/34) Accurately ripped
2 | (34/34) Accurately ripped
3 | (34/34) Accurately ripped
4 | (34/34) Accurately ripped
5 | (34/34) Accurately ripped
6 | (34/34) Accurately ripped
7 | (34/34) Accurately ripped
8 | (34/34) Accurately ripped
9 | (34/34) Accurately ripped
10 | (34/34) Accurately ripped
11 | (34/34) Accurately ripped
12 | (34/34) Accurately ripped
13 | (34/34) Accurately ripped
14 | (34/34) Accurately ripped
15 | (34/34) Accurately ripped

==== Log checksum 902CE65279C99A2A76718538887FA01DB9A36362C0021A9FB5CC4823B62E7304 ====

foobar2000 1.2.9 / Dynamic Range Meter 1.1.1
log date: 2015-10-19 17:25:03

Analyzed: Procol Harum / A Whiter Shade Of Pale (REP 4666-WY)

DR Peak RMS Duration Track

DR8 -0.55 dB -10.59 dB 4:09 01-A Whiter Shade Of Pale
DR9 -0.14 dB -11.36 dB 2:40 02-Conquistador
DR9 -0.14 dB -10.20 dB 3:27 03-She Wandered Through The Garden Fence
DR11 -0.14 dB -12.60 dB 3:41 04-Something Following Me
DR10 -0.65 dB -12.72 dB 1:56 05-Mabel
DR9 -0.14 dB -11.56 dB 5:06 06-Cerdes
DR9 -0.14 dB -10.81 dB 4:51 07-Christmas Camel
DR9 -0.14 dB -10.12 dB 2:56 08-Kaleidoscope
DR8 -0.14 dB -9.65 dB 3:41 09-Salad Days
DR9 -0.14 dB -10.92 dB 1:33 10-Good Captain Clack
DR10 -0.14 dB -12.81 dB 5:03 11-Repent Walpurgis
DR9 -0.14 dB -11.21 dB 3:01 12-Lime Street Blues
DR9 -0.14 dB -11.04 dB 3:57 13-Homburg
DR9 -0.19 dB -10.90 dB 2:25 14-Monsieur Armand
DR9 -0.47 dB -10.72 dB 2:46 15-Seem To Have The Blues All The Time

Number of tracks: 15
Official DR value: DR9

Samplerate: 44100 Hz
Channels: 2
Bits per sample: 16
Bitrate: 447 kbps
Codec: FLAC

[CUETools log; Date: 19.10.2015 17:19:16; Version: 2.1.4]
[CTDB TOCID: dIUJ1lyD.ASpK7daFjvrwdhB830-] found.
Track | CTDB Status
1 | (34/35) Accurately ripped
2 | (35/35) Accurately ripped
3 | (35/35) Accurately ripped
4 | (35/35) Accurately ripped
5 | (35/35) Accurately ripped
6 | (35/35) Accurately ripped
7 | (35/35) Accurately ripped
8 | (35/35) Accurately ripped
9 | (35/35) Accurately ripped
10 | (35/35) Accurately ripped
11 | (35/35) Accurately ripped
12 | (35/35) Accurately ripped
13 | (35/35) Accurately ripped
14 | (35/35) Accurately ripped
15 | (35/35) Accurately ripped
[AccurateRip ID: 001cd666-01464fcf-cf0c010f] found.
Track [ CRC | V2 ] Status
01 [266bf5a7|e528c897] (29+27/56) Accurately ripped
02 [d3aad45a|9c805536] (29+28/57) Accurately ripped
03 [aad48917|cafc4456] (29+29/58) Accurately ripped
04 [cfc9b0d3|75683952] (29+29/58) Accurately ripped
05 [3fbd9e0a|1d1b3ad9] (29+28/57) Accurately ripped
06 [156a1d20|d3b30c70] (29+28/57) Accurately ripped
07 [9215b6cf|1f56e3dd] (29+28/57) Accurately ripped
08 [031a7000|6fee1083] (29+28/57) Accurately ripped
09 [4b2ac9dd|ba9f1f18] (29+28/57) Accurately ripped
10 5a14d59|98ed3efa (29+28/57) Accurately ripped
11 [95d72c19|75c3d589] (29+28/57) Accurately ripped
12 [6ca5196c|560af09f] (29+28/57) Accurately ripped
13 [1be31514|5ddbc4c7] (29+27/56) Accurately ripped
14 [efe32ec4|04d48696] (29+28/57) Accurately ripped
15 [5e4b5297|a571e78e] (29+28/57) Accurately ripped

Track Peak [ CRC32 ] [W/O NULL] [ LOG ]
-- 98,4 [C1A9203F] [F1EC9893] CRC32
01 93,8 [CE125205] [73137771]
02 98,4 [A483A2BB] [6D98F436]
03 98,4 [291AE1B7] 526B20C
04 98,4 4B1C116 [13E89020]
05 92,7 [47AD1402] [0DE4D3F6]
06 98,4 [61E4E7C7] [ED397F1F]
07 98,4 [836AA42E] [F834F1B2]
08 98,4 [92B363B5] [567BFAC6]
09 98,4 [347DD8C9] [2791534D]
10 98,4 [3C95EDED] [8A3D7CDC]
11 98,4 [98CC395C] [DDD0FE25]
12 98,4 [F125F5B1] [7372EFF8]
13 98,4 [D65E7E37] [34CEB7D8]
14 97,8 [2BEC1F62] [71DF2151]
15 94,7 [E77F2571] [7D6BA34D]

http://i66.fastpic.ru/big/2015/1021/97/6b910b1a780602496c20dc631ace4a97.jpg

All thanks go to dafnaplus



Download Procol Harum - A Whiter Shade Of Pale (1967):

DOWNLOAD LINKS:
Buy Premium To Support Me & Get Resumable Support & Max Speed


Links are Interchangeable - No Password - Single Extraction

 
 
 
Dear visitor, you went to the site as an unregistered user. We encourage you to register or enter the site under your name.
 
   
 
 (Votes #: 0)