2013Zone For Latest Downloads

 
     
 
Legal Downloads » Music » Anthony Braxton / Milford Graves / William Parker - Beyond Quantum (2008) {Tzadik}
Menu
Home Applications
Games Movies
Music TV Shows
Torrents Graphics

Sitemap

RSS
 
Advanced Search
Last News
Site Info
Top Contributors:
  1    supper88 32766
  2    admin 32671
  3    Whisky 10080
  4    Shark_ 8911
  5    creativelivenew 8706
  6    whathesupa 2799
  7    candymypost 840
  8    hvnteam 629
  9    vuong87 3


Articles:
  This Hour: 0
  Today: 0
  This Month: 40
  All Time: 515636


Torrents:
  Today: 0
  Yesterday: 0
  All Time: 156702


Membership:
  Registered Today :0
  This Hour:0
  This Month:0
  Total:14
  Banned:1

{online}
{inform_torrent}
Friend:
We Recomend
Trend
Trend

Search In Site

Music : Anthony Braxton / Milford Graves / William Parker - Beyond Quantum (2008) {Tzadik}
 
http://i67.fastpic.ru/big/2015/1021/22/8deb8c288cd06b505a6e69eb22231522.jpg

Anthony Braxton / Milford Graves / William Parker - Beyond Quantum (2008) {Tzadik}
X Lossless Decoder | FLAC tracks | Cue+Log+M3U | Full Scans 300dpi | 420MB + 5% Recovery
Genre: Avant-Garde Jazz, Free Jazz

"If ever a recording needed to be trumpeted from the rooftops, it's this one, and perhaps we all owe a debt of gratitude to John Zorn for making it happen. This initial trio meeting of saxophonist Anthony Braxton, drummer Milford Graves, and ubiquitous bassist William Parker is a vanguard jazz fan's dream come true. Beyond Quantum places these three modern legends in a completely improvised setting in producer Bill Laswell's studio for 63 minutes of pure inspirational, communicative fire."

Track List
01. First Meeting 14:49
02. Second Meeting 10:48
03. Third Meeting 16:34
04. Fourth Meeting 16:08
05. Fifth Meeting 5:11

musicians
Anthony Braxton - saxophone
Milford Graves - percussion
William Parker - bass

Produced by Bill Laswell and John Zorn

X Lossless Decoder version 20141129 (148.1)

XLD extraction logfile from 2015-10-03 18:20:09 +0200

Anthony Braxton / Beyond Quantum

Used drive : HL-DT-ST DVDRW GX40N (revision RQ00)
Media type : Pressed CD

Ripper mode : XLD Secure Ripper
Disable audio cache : OK for the drive with a cache less than 1375KiB
Make use of C2 pointers : NO
Read offset correction : 6
Max retry count : 100
Gap status : Analyzed, Appended (except HTOA)

TOC of the extracted CD
Track | Start | Length | Start sector | End sector
--1 | 00:00:00 | 14:49:16 | 0 | 66690 2 | 14:49:16 | 10:48:22 | 66691 | 115312 3 | 25:37:38 | 16:34:02 | 115313 | 189864 4 | 42:11:40 | 16:08:10 | 189865 | 262474 5 | 58:19:50 | 05:10:54 | 262475 | 285778

AccurateRip Summary (DiscID: 000e0a3b-00411767-3c0ee205)
Track 01 : OK (v1+v2, confidence 13/13)
Track 02 : OK (v1+v2, confidence 13/13)
Track 03 : OK (v1+v2, confidence 12/12)
Track 04 : OK (v1+v2, confidence 12/12)
Track 05 : OK (v1+v2, confidence 12/12)->All tracks accurately ripped.

All Tracks
Album gain : -5.86 dB
Peak : 0.977386
StatisticsRead error : 0Jitter error (maybe fixed) : 0Retry sector count : 0Damaged sector count : 0

Track 01
Filename : /Users/XLD/01 - First Meeting.flac
Pre-gap length : 00:02:00 Track gain : -3.91 dB
Peak : 0.977356
CRC32 hash (test run) : CCCED654
CRC32 hash : CCCED654
CRC32 hash (skip zero) : ED74A080
AccurateRip v1 signature : 321017FC
AccurateRip v2 signature : 103EBF14->Accurately ripped (v1+v2, confidence 9+4/13)
StatisticsRead error : 0Jitter error (maybe fixed) : 0Retry sector count : 0Damaged sector count : 0

Track 02
Filename : /Users/XLD/02 - Second Meeting.flac Track gain : -7.22 dB
Peak : 0.977386
CRC32 hash (test run) : F02380E8
CRC32 hash : F02380E8
CRC32 hash (skip zero) : A79FD6FF
AccurateRip v1 signature : EF2899C6
AccurateRip v2 signature : 852D16E4->Accurately ripped (v1+v2, confidence 9+4/13)
StatisticsRead error : 0Jitter error (maybe fixed) : 0Retry sector count : 0Damaged sector count : 0

Track 03
Filename : /Users/XLD/03 - Third Meeting.flac Track gain : -2.81 dB
Peak : 0.977356
CRC32 hash (test run) : 517A4BF6
CRC32 hash : 517A4BF6
CRC32 hash (skip zero) : 687B124D
AccurateRip v1 signature : D85D5C9A
AccurateRip v2 signature : 503303B8->Accurately ripped (v1+v2, confidence 8+4/12)
StatisticsRead error : 0Jitter error (maybe fixed) : 0Retry sector count : 0Damaged sector count : 0

Track 04
Filename : /Users/XLD/04 - Fourth Meeting.flac Track gain : -5.47 dB
Peak : 0.977325
CRC32 hash (test run) : D055EDA7
CRC32 hash : D055EDA7
CRC32 hash (skip zero) : DFD55D57
AccurateRip v1 signature : BC2FA63C
AccurateRip v2 signature : D74A3EAF->Accurately ripped (v1+v2, confidence 8+4/12)
StatisticsRead error : 0Jitter error (maybe fixed) : 0Retry sector count : 0Damaged sector count : 0

Track 05
Filename : /Users/XLD/05 - Fifth Meeting.flac
Pre-gap length : 00:01:46 Track gain : -7.23 dB
Peak : 0.977325
CRC32 hash (test run) : F5000A3A
CRC32 hash : F5000A3A
CRC32 hash (skip zero) : CC1C4686
AccurateRip v1 signature : 88FBFFCA
AccurateRip v2 signature : 5738480D->Accurately ripped (v1+v2, confidence 8+4/12)
StatisticsRead error : 0Jitter error (maybe fixed) : 0Retry sector count : 0Damaged sector count : 0

No errors occurred

End of status report

--BEGIN XLD SIGNATURE--
VYoDwBy.b0OQsZz1rBy_Rn59Ww8Sje2inNcfsYop9Drkjtkry7kHN2heIPUMMMZ_pvFRjoVfskzf5J7HxHg0U7CtbDbvAzRN1RSd83e
--END XLD SIGNATURE--

Analyzed: Anthony Braxton / Beyond Quantum

DR Peak RMS Duration Track

DR12 -0.20 dB -14.31 dB 14:49 01-First Meeting
DR11 -0.20 dB -13.47 dB 10:48 02-Second Meeting
DR13 -0.20 dB -15.90 dB 16:34 03-Third Meeting
DR11 -0.20 dB -14.02 dB 16:08 04-Fourth Meeting
DR10 -0.20 dB -12.07 dB 5:11 05-Fifth Meeting

Number of tracks: 5
Official DR value: DR12

Samplerate: 44100 Hz
Channels: 2
Bits per sample: 16
Bitrate: 964 kbps
Codec: FLAC

http://i65.fastpic.ru/big/2015/1021/2e/95ac9d3788e926ffb5670f7462f6f32e.jpg

http://i57.fastpic.ru/big/2015/1021/d9/f8393b1c6a46fda2d31018653373c9d9.jpg

Rip by opeth


DOWNLOAD LINKS:
Buy Premium To Support Me & Get Resumable Support & Max Speed


Links are Interchangeable - No Password - Single Extraction

 
 
 
Dear visitor, you went to the site as an unregistered user. We encourage you to register or enter the site under your name.
 
   
 
 (Votes #: 0)