2013Zone For Latest Downloads

 
     
 
Legal Downloads » Music » Decameron - Third Light (1975) + Tomorrow's Pantomime (1976) [2 LP in 1 CD, 2000]
Menu
Home Applications
Games Movies
Music TV Shows
Torrents Graphics

Sitemap

RSS
 
Advanced Search
Last News
Site Info
Top Contributors:
  1    supper88 32766
  2    admin 32671
  3    Whisky 10080
  4    Shark_ 8911
  5    creativelivenew 8706
  6    whathesupa 2799
  7    candymypost 840
  8    hvnteam 629
  9    vuong87 3


Articles:
  This Hour: 0
  Today: 0
  This Month: 20
  All Time: 515636


Torrents:
  Today: 0
  Yesterday: 0
  All Time: 156702


Membership:
  Registered Today :0
  This Hour:0
  This Month:0
  Total:14
  Banned:1

{online}
{inform_torrent}
Friend:
We Recomend
Trend
Trend

Search In Site

Music : Decameron - Third Light (1975) + Tomorrow's Pantomime (1976) [2 LP in 1 CD, 2000]
 
http://i59.fastpic.ru/big/2015/1021/16/a20e191b1490f3d010adf3aad27b6316.jpg

Decameron - Third Light (1975) + Tomorrow's Pantomime (1976) [2 LP in 1 CD, 2000]
EAC | FLAC | Tracks (Cue&Log) ~ 445 Mb (incl 5%) | Mp3 (CBR320) ~ 194 Mb (incl 5%) | Scans included
Genre: British Folk-Rock, Prog-Folk, Psychedelic | Label: Castle Music | # CMAR635 | Time: 01:17:56

"Decameron produced four albums between 1973 and 1976 (Some discographies listed a recording called "Beyond the Light" but this never saw release). This long CD contains all of the third disk and a most of the worthiest pieces on the fourth. Considering their short recording career, Decameron exhibited a fairly wide range of musical styles and talent as they flitted from label to label. But it was all loosely in the British folk rock realm with more than a casual nod to the lighter elements of progressive rock in vogue at the time. The enigmatic style of that genre is displayed in the stunning "All the Best Wishes", the reverent "The Ungodly", the intensely melodic "Journey's End" bathed in mellotron, and "The Deal". The lighter pieces are equally engaging, such as "Saturday" about rolling down the windows and blasting the stereo and shouting obscenities at the market crowd, "Road to the Sea" with its rollicking rhythms and musical and lyrical allusions to the nautical, "Fallen Over", and "Tomorrow's pantomime"."

"This UK folk rock band was formed in 1968 by Dave Bell (guitar/percussion/vocals), and Johnny Coppin (b. 5 April 1946, South Woodford, Essex, England; guitar/piano/vocals). The line-up grew, in September 1969, when the duo added Al Fenn (b. Alastair Fenn, 9 March 1947, Chingford, Essex, England; guitar/mandolin/vocals), and further still with the addition of Geoff March (cello/violin/vocals) in December 1969; Dik Cadbury (b. Richard Cadbury, 12 June 1950, Selly Oak, Birmingham, England; bass/violin/vocals) in July 1973; and finally Bob Critchley (drums/vocals) in September 1975. From 1971-74, the band was signed to the Fingimigig agency, then run by comedian Jasper Carrott and John Starkey. Based in Cheltenham, Gloucestershire, Decameron performed contemporary folk rock material, much of which was composed by Bell and Coppin. They released three singles on as many labels: ?Stoats Grope' in 1973, on Vertigo Records; ?Breakdown Of The Song' in 1974, on Mooncrest; and ?Dancing' in 1976, on Transatlantic. Two other singles, both on Transatlantic, were released by the band under the name of the Magnificent Mercury Brothers, in which guise they sang 60s doo-wop style. The singles were ?New Girl In School' in 1975, and a version of the classic ?Why Do Fools Fall In Love', in 1976. Neither single achieved any great commercial success, and the band split, with Coppin going on to pursue an acclaimed solo career. He reunited with his former colleagues in Decameron for a series of live shows in the late 90s and early 00s.

Allmusic.com
"




Tracklist:

Third Light (1975):

01. Rock And Roll Away (03:40)
02. All The Best Wishes (05:20)
03. The Strawman (04:37)
04. Saturday (03:03)
05. Wide As The Years (06:06)
06. Journey's End (04:43)
07. Road To The Sea (03:09)
08. Trapeze (04:55)
09. The Ungodly (04:12)
10. Morning Glory (05:36)

Tomorrow's Pantomime (1976):

11. The Deal (04:40)
12. Fallen Over (02:33)
13. Ask Me Tomorrow (05:20)
14. Tomorrow's Pantomime (04:40)
15. The Shadows On The Stairs (06:26)
16. So This Is God's Country (05:31)
17. Peace With Honour (03:19)


Exact Audio Copy V0.99 prebeta 5 from 4. May 2009

Отчёт EAC об извлечении, выполненном 12. декабря 2009, 18:33

Decameron / Third Light, Tomorrow's Pantomime

Дисковод: Optiarc DVD RW AD-7203A Adapter: 1 ID: 0

Режим чтения : Достоверность
?спользование точного потока : Да
Отключение кэ?а аудио : Да
?спользование указателей C2 : Нет

Коррекция смещения при чтении : 48
Способность читать области Lead-in и Lead-out : Нет
Заполнение пропущенных сэмплов ти?иной : Да
Удаление блоков с ти?иной в начале и конце : Нет
При вычислениях CRC использовались нулевые сэмплы : Да
?нтерфейс : Установленный вне?ний ASPI-интерфейс
Обработка зазоров
: Добавлено к предыдущему треку

Выходной формат : Пользовательский кодировщик
Выбранный битрейт : 1024 kBit/s
Качество : Высокий
Добавление ID3-тэга : Нет
Утилита сжатия : C:\Program Files\Exact Audio Copy\FLAC\FLAC.EXE
Дополнительные параметры : -6 -V -T "ARTIST=%a" -T "TITLE=%t" -T "ALBUM=%g" -T "DATE=%y" -T "TRACKNUMBER=%n" -T "GENRE=%m" -T "COMMENT=%e" %s -o %d

TOC извлечённого CD Трек | Старт | Длительность | Начальный сектор | Конечный сектор

1 | 0:00.32 | 3:40.53 | 32 | 16584
2 | 3:41.10 | 5:20.22 | 16585 | 40606
3 | 9:01.32 | 4:37.33 | 40607 | 61414
4 | 13:38.65 | 3:03.25 | 61415 | 75164
5 | 16:42.15 | 6:06.30 | 75165 | 102644
6 | 22:48.45 | 4:43.20 | 102645 | 123889
7 | 27:31.65 | 3:09.30 | 123890 | 138094
8 | 30:41.20 | 4:55.45 | 138095 | 160264
9 | 35:36.65 | 4:12.00 | 160265 | 179164
10 | 39:48.65 | 5:36.27 | 179165 | 204391
11 | 45:25.17 | 4:40.05 | 204392 | 225396
12 | 50:05.22 | 2:33.03 | 225397 | 236874
13 | 52:38.25 | 5:20.52 | 236875 | 260926
14 | 57:59.02 | 4:40.15 | 260927 | 281941
15 | 62:39.17 | 6:26.18 | 281942 | 310909
16 | 69:05.35 | 5:31.42 | 310910 | 335776
17 | 74:37.02 | 3:19.70 | 335777 | 350771

Трек 1 ?мя файла I:\EAC\01-Rock And Roll Away.wav Длина предзазора 0:00:02.42 Пиковый уровень 93.4 %
Качество трека 100.0 %
CRC теста 1B0406F6
CRC копии 1B0406F6
Трек не обнаружен в базе AccurateRip
Копирование... OK

Трек 2 ?мя файла I:\EAC\02-All The Best Wishes.wav Длина предзазора 0:00:01.44 Пиковый уровень 98.8 %
Качество трека 100.0 %
CRC теста C8755ABC
CRC копии C8755ABC
Трек не обнаружен в базе AccurateRip
Копирование... OK

Трек 3 ?мя файла I:\EAC\03-The Strawman.wav Длина предзазора 0:00:02.46 Пиковый уровень 78.6 %
Качество трека 100.0 %
CRC теста 60F173DE
CRC копии 60F173DE
Трек не обнаружен в базе AccurateRip
Копирование... OK

Трек 4 ?мя файла I:\EAC\04-Saturday.wav Длина предзазора 0:00:01.70 Пиковый уровень 98.8 %
Качество трека 100.0 %
CRC теста 3AF75750
CRC копии 3AF75750
Трек не обнаружен в базе AccurateRip
Копирование... OK

Трек 5 ?мя файла I:\EAC\05-Wide As The Years.wav Длина предзазора 0:00:01.97 Пиковый уровень 98.8 %
Качество трека 100.0 %
CRC теста F11168EC
CRC копии F11168EC
Трек не обнаружен в базе AccurateRip
Копирование... OK

Трек 6 ?мя файла I:\EAC\06-Journey's End.wav Длина предзазора 0:00:02.97 Пиковый уровень 93.7 %
Качество трека 99.9 %
CRC теста 57CEC549
CRC копии 57CEC549
Трек не обнаружен в базе AccurateRip
Копирование... OK

Трек 7 ?мя файла I:\EAC\07-Road To The Sea.wav Длина предзазора 0:00:02.73 Пиковый уровень 98.8 %
Качество трека 100.0 %
CRC теста 9ABC51BF
CRC копии 9ABC51BF
Трек не обнаружен в базе AccurateRip
Копирование... OK

Трек 8 ?мя файла I:\EAC\08-Trapeze.wav Длина предзазора 0:00:01.37 Пиковый уровень 98.8 %
Качество трека 100.0 %
CRC теста 513AAB7F
CRC копии 513AAB7F
Трек не обнаружен в базе AccurateRip
Копирование... OK

Трек 9 ?мя файла I:\EAC\09-The Ungodly.wav Длина предзазора 0:00:01.77 Пиковый уровень 97.1 %
Качество трека 99.9 %
CRC теста 358EEC65
CRC копии 358EEC65
Трек не обнаружен в базе AccurateRip
Копирование... OK

Трек 10 ?мя файла I:\EAC\10-Morning Glory.wav Длина предзазора 0:00:01.70 Пиковый уровень 90.0 %
Качество трека 99.9 %
CRC теста 0C3A1F5D
CRC копии 0C3A1F5D
Трек не обнаружен в базе AccurateRip
Копирование... OK

Трек 11 ?мя файла I:\EAC\11-The Deal.wav Длина предзазора 0:00:03.60 Пиковый уровень 98.8 %
Качество трека 100.0 %
CRC теста E0DF2F28
CRC копии E0DF2F28
Трек не обнаружен в базе AccurateRip
Копирование... OK

Трек 12 ?мя файла I:\EAC\12-Fallen Over.wav Пиковый уровень 96.4 %
Качество трека 100.0 %
CRC теста D6FB296B
CRC копии D6FB296B
Трек не обнаружен в базе AccurateRip
Копирование... OK

Трек 13 ?мя файла I:\EAC\13-Ask Me Tomorrow.wav Длина предзазора 0:00:02.64 Пиковый уровень 91.4 %
Качество трека 100.0 %
CRC теста 9B973307
CRC копии 9B973307
Трек не обнаружен в базе AccurateRip
Копирование... OK

Трек 14 ?мя файла I:\EAC\14-Tomorrow's Pantomime.wav Длина предзазора 0:00:03.20 Пиковый уровень 94.6 %
Качество трека 100.0 %
CRC теста C0BFD644
CRC копии C0BFD644
Трек не обнаружен в базе AccurateRip
Копирование... OK

Трек 15 ?мя файла I:\EAC\15-The Shadows On The Stairs.wav Длина предзазора 0:00:01.89 Пиковый уровень 97.2 %
Качество трека 100.0 %
CRC теста F6515D38
CRC копии F6515D38
Трек не обнаружен в базе AccurateRip
Копирование... OK

Трек 16 ?мя файла I:\EAC\16-So This Is God's Country.wav Длина предзазора 0:00:02.17 Пиковый уровень 90.1 %
Качество трека 100.0 %
CRC теста 4FCAA1F9
CRC копии 4FCAA1F9
Трек не обнаружен в базе AccurateRip
Копирование... OK

Трек 17 ?мя файла I:\EAC\17-Peace With Honour.wav Пиковый уровень 98.0 %
Качество трека 99.9 %
CRC теста C6464A78
CRC копии C6464A78
Трек не обнаружен в базе AccurateRip
Копирование... OK

Ни одного трека нет в базе AccurateRip

О?ибок не произо?ло

Конец отчёта

foobar2000 1.2 / Dynamic Range Meter 1.1.1
log date: 2015-10-19 18:57:01

Analyzed: Decameron / Third Light, Tomorrow's Pantomime

DR Peak RMS Duration Track

DR12 -0.58 dB -15.79 dB 3:41 01-Rock And Roll Away
DR11 -0.10 dB -15.54 dB 5:20 02-All The Best Wishes
DR12 -2.09 dB -17.69 dB 4:37 03-The Strawman
DR11 -0.10 dB -13.05 dB 3:03 04-Saturday
DR10 -0.10 dB -14.56 dB 6:06 05-Wide As The Years
DR9 -0.57 dB -12.87 dB 4:43 06-Journey's End
DR10 -0.10 dB -11.69 dB 3:09 07-Road To The Sea
DR11 -0.10 dB -15.63 dB 4:56 08-Trapeze
DR11 -0.25 dB -15.96 dB 4:12 09-The Ungodly
DR12 -0.91 dB -17.79 dB 5:36 10-Morning Glory
DR12 -0.10 dB -14.20 dB 4:40 11-The Deal
DR12 -0.32 dB -14.72 dB 2:33 12-Fallen Over
DR12 -0.77 dB -15.97 dB 5:21 13-Ask Me Tomorrow
DR12 -0.48 dB -15.21 dB 4:40 14-Tomorrow's Pantomime
DR12 -0.24 dB -15.40 dB 6:26 15-The Shadows On The Stairs
DR11 -0.90 dB -14.46 dB 5:32 16-So This Is God's Country
DR11 -0.17 dB -15.21 dB 3:20 17-Peace With Honour

Number of tracks: 17
Official DR value: DR11

Samplerate: 44100 Hz
Channels: 2
Bits per sample: 16
Bitrate: 760 kbps
Codec: FLAC

http://i68.fastpic.ru/big/2015/1021/1c/52ed10f44086d48e6cee4744cfb68d1c.jpg

http://i59.fastpic.ru/big/2015/1021/bd/be172107eebf223bda49a625902030bd.jpg

All thanks to original releaser
Password: designol

DOWNLOAD LINKS:
Buy Premium To Support Me & Get Resumable Support & Max Speed


Links are Interchangeable - No Password - Single Extraction

 
 
 
Dear visitor, you went to the site as an unregistered user. We encourage you to register or enter the site under your name.
 
   
 
 (Votes #: 0)