2013Zone For Latest Downloads

 
     
 
Legal Downloads » Music » The Misunderstood ‎- The Legendary Goldstar Album / Golden Glass (1997)
Menu
Home Applications
Games Movies
Music TV Shows
Torrents Graphics

Sitemap

RSS
 
Advanced Search
Last News
Site Info
Top Contributors:
  1    supper88 32766
  2    admin 32671
  3    Whisky 10080
  4    Shark_ 8911
  5    creativelivenew 8706
  6    whathesupa 2799
  7    candymypost 840
  8    hvnteam 629
  9    vuong87 3


Articles:
  This Hour: 0
  Today: 0
  This Month: 20
  All Time: 515636


Torrents:
  Today: 0
  Yesterday: 0
  All Time: 156702


Membership:
  Registered Today :0
  This Hour:0
  This Month:0
  Total:14
  Banned:1

{online}
{inform_torrent}
Friend:
We Recomend
Trend
Trend

Search In Site

Music : The Misunderstood ‎- The Legendary Goldstar Album / Golden Glass (1997)
 
http://i57.fastpic.ru/big/2015/1021/25/ab077516d9fb067265eaa697e603d125.jpg

The Misunderstood ‎- The Legendary Goldstar Album / Golden Glass (1997)
XLD Rip | FLAC (tracks & cue & log) | 311 MB | MP3 CBR 320 kbps | 154 MB | Scans (JPEG 600 dpi) | 70 MB | 1:07:39
Genre: Psychedelic Rock / Blues-Rock / Hard Rock | Country: USA | Label: Cherry Red Records | CDM RED 142

"This double disc CD brings together two versions of The Misunderstood - the classic 60's psychedelic band (their immortal tracks being found on the CD ?Before The Dream Faded' which was nicely reviewed by the Seth Man). Disc 1 entitled ?The Legendary Gold Star Album' presents the bluesy songs the band recorded in California in 1966 under the production of the late great John Peel who discovered the band while he was over in the USA. The collection is well presented and is reminiscent of the tracks presented after the classic six psychedelic songs on ?Before The Dream Faded', but they have a slightly clearer sound here as they're taken from an acetate and the quality partialy 'restored'. Rick Brown's voice is excellent on these tracks, sounding not unlike a cross between Jim and Van Morrison, he eases through classic blues tracks ?You Don't Have to Go Out' and ?Who's Been Talkin' (tracks which appear on ?Before the Dream Faded')."



Tracklist:

CD1 The Legendary Gold Star Album
01. Blues With A Feeling (4:43)
02. Who's Been Talking (2:58)
03. You Got Me Dizzy (3:14)
04. You Don't Have To Go Out (4:44)
05. Goin' To New York (2:41)
06. Shake Your Money Maker (3:50)
07. I Just Want To Make Love To You (3:16)
08. I'm Not Talking (5:33)

CD2 Golden Glass
01. Never Had A Girl (Like You Before) (4:31)
02. Golden Glass (7:40)
03. I Don't Want To Discuss It (5:00)
04. Little Red Rooster (5:01)
05. (You're) Tuff Enough (3:29)
06. Freedom (3:34)
07. Keep On Running (5:14)
08. I'm Cruising (2:10)

X Lossless Decoder version 20110924 (136.3)
XLD extraction logfile from 2011-11-15 05:08:19 +0000
The Misunderstood / The Legendary Goldstar Album/Golden Glass
Used drive : MATSHITA DVD-R UJ-8A8 (revision HA13)
Ripper mode : XLD Secure Ripper
Disable audio cache : OK for the drive with a cache less than 1375KiB
Make use of C2 pointers : NO
Read offset correction : 102
Max retry count : 100
Gap status : Analyzed, Appended (except HTOA)
TOC of the extracted CD
Track | Start | Length | Start sector | End sector
--1 | 00:00:32 | 04:43:28 | 32 | 212842 | 04:43:60 | 02:58:15 | 21285 | 346493 | 07:42:00 | 03:13:57 | 34650 | 491814 | 10:55:57 | 04:44:20 | 49182 | 705015 | 15:40:02 | 02:41:23 | 70502 | 825996 | 18:21:25 | 03:50:22 | 82600 | 998717 | 22:11:47 | 03:16:33 | 99872 | 1146048 | 25:28:05 | 05:33:25 | 114605 | 139604
AccurateRip Summary
Disc not found in AccurateRip DB.
All Tracks
Album gain : -5.37 dB
Peak : 0.996094
StatisticsRead error : 0Jitter error (maybe fixed) : 0Retry sector count : 0Damaged sector count : 0
Track 01
Filename : /Users/ianwolff/Downloads/torrent seeding/The Misunderstood - The Legendary Goldstar Albumп?ЏGolden Glass (1997) [FLAC]/01 Blues With A Feeling.flac
Pre-gap length : 00:02:32
Track gain : -4.99 dB
Peak : 0.996094
CRC32 hash (test run) : 7342F358
CRC32 hash : 7342F358
CRC32 hash (skip zero) : 0F776AC7
AccurateRip signature : 5DF5BF1B->Track not present in AccurateRip database.
StatisticsRead error : 0Jitter error (maybe fixed) : 0Retry sector count : 0Damaged sector count : 0
Track 02
Filename : /Users/ianwolff/Downloads/torrent seeding/The Misunderstood - The Legendary Goldstar Albumп?ЏGolden Glass (1997) [FLAC]/02 Who's Been Talking.flac
Pre-gap length : 00:04:73
Track gain : -4.01 dB
Peak : 0.967529
CRC32 hash (test run) : 193C0303
CRC32 hash : 193C0303
CRC32 hash (skip zero) : 1928ED7C
AccurateRip signature : 6EC21610->Track not present in AccurateRip database.
StatisticsRead error : 0Jitter error (maybe fixed) : 0Retry sector count : 0Damaged sector count : 0
Track 03
Filename : /Users/ianwolff/Downloads/torrent seeding/The Misunderstood - The Legendary Goldstar Albumп?ЏGolden Glass (1997) [FLAC]/03 You Got Me Dizzy.flac
Pre-gap length : 00:01:00
Track gain : -3.51 dB
Peak : 0.942810
CRC32 hash (test run) : 25D7170C
CRC32 hash : 25D7170C
CRC32 hash (skip zero) : 5834FE37
AccurateRip signature : E0294056->Track not present in AccurateRip database.
StatisticsRead error : 0Jitter error (maybe fixed) : 0Retry sector count : 0Damaged sector count : 0
Track 04
Filename : /Users/ianwolff/Downloads/torrent seeding/The Misunderstood - The Legendary Goldstar Albumп?ЏGolden Glass (1997) [FLAC]/04 You Don't Have To Go Out.flac
Pre-gap length : 00:02:15
Track gain : -2.56 dB
Peak : 0.975342
CRC32 hash (test run) : 37FB7ACB
CRC32 hash : 37FB7ACB
CRC32 hash (skip zero) : 602CB02A
AccurateRip signature : 3A188DFB->Track not present in AccurateRip database.
StatisticsRead error : 0Jitter error (maybe fixed) : 0Retry sector count : 0Damaged sector count : 0
Track 05
Filename : /Users/ianwolff/Downloads/torrent seeding/The Misunderstood - The Legendary Goldstar Albumп?ЏGolden Glass (1997) [FLAC]/05 Goin' To New York.flac
Pre-gap length : 00:03:30
Track gain : -5.89 dB
Peak : 0.996094
CRC32 hash (test run) : 3C682092
CRC32 hash : 3C682092
CRC32 hash (skip zero) : 7500D079
AccurateRip signature : 7426C3D5->Track not present in AccurateRip database.
StatisticsRead error : 0Jitter error (maybe fixed) : 0Retry sector count : 0Damaged sector count : 0
Track 06
Filename : /Users/ianwolff/Downloads/torrent seeding/The Misunderstood - The Legendary Goldstar Albumп?ЏGolden Glass (1997) [FLAC]/06 Shake Your Money Maker.flac
Pre-gap length : 00:04:40
Track gain : -6.59 dB
Peak : 0.996094
CRC32 hash (test run) : ECF3C993
CRC32 hash : ECF3C993
CRC32 hash (skip zero) : 14486BA4
AccurateRip signature : 709E60BE->Track not present in AccurateRip database.
StatisticsRead error : 0Jitter error (maybe fixed) : 0Retry sector count : 0Damaged sector count : 0
Track 07
Filename : /Users/ianwolff/Downloads/torrent seeding/The Misunderstood - The Legendary Goldstar Albumп?ЏGolden Glass (1997) [FLAC]/07 I Just Want To Make Love To You.flac
Pre-gap length : 00:02:12
Track gain : -6.16 dB
Peak : 0.996094
CRC32 hash (test run) : 83B21B5B
CRC32 hash : 83B21B5B
CRC32 hash (skip zero) : 35215B48
AccurateRip signature : 42C0B898->Track not present in AccurateRip database.
StatisticsRead error : 0Jitter error (maybe fixed) : 0Retry sector count : 0Damaged sector count : 0
Track 08
Filename : /Users/ianwolff/Downloads/torrent seeding/The Misunderstood - The Legendary Goldstar Albumп?ЏGolden Glass (1997) [FLAC]/08 I'm Not Talking.flac
Pre-gap length : 00:03:13
Track gain : -4.68 dB
Peak : 0.996063
CRC32 hash (test run) : C6653774
CRC32 hash : C6653774
CRC32 hash (skip zero) : FB0EE416
AccurateRip signature : E7E13D31->Track not present in AccurateRip database.
StatisticsRead error : 0Jitter error (maybe fixed) : 0Retry sector count : 0Damaged sector count : 0
No errors occurred
End of status report

X Lossless Decoder version 20110924 (136.3)
XLD extraction logfile from 2011-11-15 05:21:41 +0000
The Misunderstood / The Legendary Goldstar Albumп?ЏGolden Glass
Used drive : MATSHITA DVD-R UJ-8A8 (revision HA13)
Ripper mode : XLD Secure Ripper
Disable audio cache : OK for the drive with a cache less than 1375KiB
Make use of C2 pointers : NO
Read offset correction : 102
Max retry count : 100
Gap status : Analyzed, Appended (except HTOA)
TOC of the extracted CD
Track | Start | Length | Start sector | End sector
--1 | 00:00:32 | 04:31:13 | 32 | 203692 | 04:31:45 | 07:40:17 | 20370 | 548863 | 12:11:62 | 04:59:48 | 54887 | 773594 | 17:11:35 | 05:00:62 | 77360 | 999215 | 22:12:22 | 03:28:43 | 99922 | 1155646 | 25:40:65 | 03:34:02 | 115565 | 1316167 | 29:14:67 | 05:13:70 | 131617 | 1551618 | 34:28:62 | 02:09:63 | 155162 | 164899
AccurateRip Summary
Disc not found in AccurateRip DB.
All Tracks
Album gain : -4.11 dB
Peak : 1.000000
StatisticsRead error : 0Jitter error (maybe fixed) : 0Retry sector count : 0Damaged sector count : 0
Track 01
Filename : /Users/ianwolff/Downloads/torrent seeding/The Misunderstood - The Legendary Goldstar Albumп?ЏGolden Glass (1997) [FLAC]/01 Never Had A Girl (Like You Before).flac
Pre-gap length : 00:02:32
Track gain : -3.91 dB
Peak : 0.999969
CRC32 hash (test run) : 0A2AC66D
CRC32 hash : 0A2AC66D
CRC32 hash (skip zero) : 2A72B96B
AccurateRip signature : 7175BC45->Track not present in AccurateRip database.
StatisticsRead error : 0Jitter error (maybe fixed) : 0Retry sector count : 0Damaged sector count : 0
Track 02
Filename : /Users/ianwolff/Downloads/torrent seeding/The Misunderstood - The Legendary Goldstar Albumп?ЏGolden Glass (1997) [FLAC]/02 Golden Glass.flac
Pre-gap length : 00:03:28
Track gain : -1.86 dB
Peak : 0.989929
CRC32 hash (test run) : FAF3F2B0
CRC32 hash : FAF3F2B0
CRC32 hash (skip zero) : 7E1FE0E8
AccurateRip signature : 361319AF->Track not present in AccurateRip database.
StatisticsRead error : 0Jitter error (maybe fixed) : 0Retry sector count : 0Damaged sector count : 0
Track 03
Filename : /Users/ianwolff/Downloads/torrent seeding/The Misunderstood - The Legendary Goldstar Albumп?ЏGolden Glass (1997) [FLAC]/03 I Don't Want To Discuss It.flac
Pre-gap length : 00:03:25
Track gain : -4.11 dB
Peak : 0.992554
CRC32 hash (test run) : 6FE8636C
CRC32 hash : 6FE8636C
CRC32 hash (skip zero) : 46543E84
AccurateRip signature : 3963649B->Track not present in AccurateRip database.
StatisticsRead error : 0Jitter error (maybe fixed) : 0Retry sector count : 0Damaged sector count : 0
Track 04
Filename : /Users/ianwolff/Downloads/torrent seeding/The Misunderstood - The Legendary Goldstar Albumп?ЏGolden Glass (1997) [FLAC]/04 Little Red Rooster.flac
Pre-gap length : 00:03:25
Track gain : -4.73 dB
Peak : 1.000000
CRC32 hash (test run) : B3B99C86
CRC32 hash : B3B99C86
CRC32 hash (skip zero) : 205E9F94
AccurateRip signature : D39601E9->Track not present in AccurateRip database.
StatisticsRead error : 0Jitter error (maybe fixed) : 0Retry sector count : 0Damaged sector count : 0
Track 05
Filename : /Users/ianwolff/Downloads/torrent seeding/The Misunderstood - The Legendary Goldstar Albumп?ЏGolden Glass (1997) [FLAC]/05 (You're) Tuff Enough.flac
Pre-gap length : 00:03:27
Track gain : -4.72 dB
Peak : 1.000000
CRC32 hash (test run) : E726D569
CRC32 hash : E726D569
CRC32 hash (skip zero) : 42B82693
AccurateRip signature : 2C872B7B->Track not present in AccurateRip database.
StatisticsRead error : 0Jitter error (maybe fixed) : 0Retry sector count : 0Damaged sector count : 0
Track 06
Filename : /Users/ianwolff/Downloads/torrent seeding/The Misunderstood - The Legendary Goldstar Albumп?ЏGolden Glass (1997) [FLAC]/06 Freedom.flac
Pre-gap length : 00:03:28
Track gain : -4.51 dB
Peak : 0.983459
CRC32 hash (test run) : 7C3A249C
CRC32 hash : 7C3A249C
CRC32 hash (skip zero) : CC5EA861
AccurateRip signature : 982E6A82->Track not present in AccurateRip database.
StatisticsRead error : 0Jitter error (maybe fixed) : 0Retry sector count : 0Damaged sector count : 0
Track 07
Filename : /Users/ianwolff/Downloads/torrent seeding/The Misunderstood - The Legendary Goldstar Albumп?ЏGolden Glass (1997) [FLAC]/07 Keep On Running.flac
Pre-gap length : 00:03:32
Track gain : -1.58 dB
Peak : 1.000000
CRC32 hash (test run) : FB46DD0B
CRC32 hash : FB46DD0B
CRC32 hash (skip zero) : 5E5E4FB3
AccurateRip signature : 3005F8E1->Track not present in AccurateRip database.
StatisticsRead error : 0Jitter error (maybe fixed) : 0Retry sector count : 0Damaged sector count : 0
Track 08
Filename : /Users/ianwolff/Downloads/torrent seeding/The Misunderstood - The Legendary Goldstar Albumп?ЏGolden Glass (1997) [FLAC]/08 I'm Cruising.flac
Pre-gap length : 00:03:25
Track gain : -4.10 dB
Peak : 0.999969
CRC32 hash (test run) : 1EA09996
CRC32 hash : 1EA09996
CRC32 hash (skip zero) : C2F89B40
AccurateRip signature : 938B3B30->Track not present in AccurateRip database.
StatisticsRead error : 0Jitter error (maybe fixed) : 0Retry sector count : 0Damaged sector count : 0
No errors occurred
End of status report

Personnel

Bass - Nick Potter,Steve Whiting
Drums - Guy Evans
Guitar [Lead] - George Phelps
Guitar [Rhythm] - David O'List
Lead Vocals - Steve Hoard
Lead Vocals, Harmonica - Rick Brown
Saxophone - Chris Mercer
Steel Guitar - Glenn Campbell

All thanks to mcbreg and marios

http://i58.fastpic.ru/big/2015/1021/6a/b0016bca904cc067cf6b6e08a6c9a66a.jpg


DOWNLOAD LINKS:
Buy Premium To Support Me & Get Resumable Support & Max Speed


Links are Interchangeable - No Password - Single Extraction

 
 
 
Dear visitor, you went to the site as an unregistered user. We encourage you to register or enter the site under your name.
 
   
 
 (Votes #: 0)