2013Zone For Latest Downloads

 
     
 
Legal Downloads » Music » Tom Jones - Starboulevard (2005)
Menu
Home Applications
Games Movies
Music TV Shows
Torrents Graphics

Sitemap

RSS
 
Advanced Search
Last News
Site Info
Top Contributors:
  1    supper88 32766
  2    admin 32671
  3    Whisky 10080
  4    Shark_ 8911
  5    creativelivenew 8706
  6    whathesupa 2799
  7    candymypost 840
  8    hvnteam 629
  9    vuong87 3


Articles:
  This Hour: 20
  Today: 20
  This Month: 78
  All Time: 515636


Torrents:
  Today: 0
  Yesterday: 0
  All Time: 156702


Membership:
  Registered Today :0
  This Hour:0
  This Month:0
  Total:14
  Banned:1

{online}
{inform_torrent}
Friend:
We Recomend
Trend
Trend
Ad1

Search In Site

Music : Tom Jones - Starboulevard (2005)
 
http://i66.fastpic.ru/big/2015/1021/da/94d4c267bee53a54c9fb1c98279c34da.jpg

Tom Jones - Starboulevard (2005)
2CD | EAC Rip | FLAC (Img) + Cue + Log ~ 571 Mb | MP3 CBR320 ~ 205 Mb
Scans (PNG, 600 dpi) ~ 87 Mb | RAR 5% Recovery
Pop, Vocal, Blue-eyed Soul | Universal Music #060249831871(3)

"Tom Jones became one of the most popular vocalists to emerge from the British Invasion. Since the mid-'60s, Jones has sung nearly every form of popular music -- pop, rock, show tunes, country, dance, and techno, he's sung it all. His actual style -- a full-throated, robust baritone that had little regard for nuance and subtlety -- never changed, he just sang over different backing tracks. On-stage, Jones played up his sexual appeal; it didn't matter whether he was in an unbuttoned shirt or a tuxedo, he always radiated a raw sexuality that earned him a large following of devoted female fans who frequently threw underwear on-stage. Jones' following never diminished over the decades; he was able to exploit trends, earning new fans while retaining his core following. This 2CD compilation by Universal Music includes mainly early songs of Tom Jones."

Wiki | Discogs | All Music
***************

http://i58.fastpic.ru/big/2015/1021/44/78e5600a03ed1c197fbafdb78e077d44.jpg

Track List CD1:

01. Green Green Grass Of Home [03:07]
02. Detroit City [03:36]
03. Funny Familiar Forgotten Feelings [02:58]
04. I'll Never Fall In Love Again [04:14]
05. I'm Coming Home [03:10]
06. Delilah [03:23]
07. Help Yourself [02:57]
08. A Minute Of Your Time [03:00]
09. Love Me Tonight [03:14]
10. Daughter Of Darkness [03:19]
11. She's A Lady [02:55]
12. Puppet Man [03:26]
13. Till [02:20]
14. The Young New Mexican Puppeteer [04:36]

Exact Audio Copy V1.0 beta 6 from 9. April 2015

EAC extraction logfile from 24. June 2015, 18:26

Tom Jones / Starboulevard (CD1)

Used drive : HL-DT-STDVDRAM GH22NS40 Adapter: 1 ID: 0

Read mode : Secure
Utilize accurate stream : Yes
Defeat audio cache : Yes
Make use of C2 pointers : No

Read offset correction

: 667
Overread into Lead-In and Lead-Out : No
Fill up missing offset samples with silence : Yes
Delete leading and trailing silent blocks : No
Null samples used in CRC calculations : Yes
Used interface
: Native Win32 interface for Win NT & 2000

Used output format : User Defined Encoder
Selected bitrate : 1024 kBit/s
Quality : High
Add ID3 tag : Yes
Command line compressor : C:\Program Files\Exact Audio Copy\Flac\flac.exe
Additional command line options : -V -8 -T "Date=%year%" -T "Genre=%genre%" %source%

TOC of the extracted CD Track | Start | Length | Start sector | End sector
--1 | 0:00.00 | 3:06.38 | 0 | 13987 2 | 3:06.38 | 3:35.68 | 13988 | 30180 3 | 6:42.31 | 2:57.05 | 30181 | 43460 4 | 9:39.36 | 4:13.44 | 43461 | 62479 5 | 13:53.05 | 3:10.00 | 62480 | 76729 6 | 17:03.05 | 3:23.00 | 76730 | 91954 7 | 20:26.05 | 2:56.37 | 91955 | 105191 8 | 23:22.42 | 2:59.02 | 105192 | 118618 9 | 26:21.44 | 3:13.17 | 118619 | 133110
10 | 29:34.61 | 3:18.18 | 133111 | 147978
11 | 32:53.04 | 2:54.59 | 147979 | 161087
12 | 35:47.63 | 3:25.12 | 161088 | 176474
13 | 39:13.00 | 2:19.34 | 176475 | 186933
14 | 41:32.34 | 4:35.29 | 186934 | 207587

Range status and errors

Selected range Filename I:\Rips\Tom Jones - Starboulevard (CD1).wav Peak level 99.9 %
Extraction speed 1.9 X
Range quality 100.0 %
Test CRC DA6A1E69
Copy CRC DA6A1E69
Copy OK

No errors occurred


AccurateRip summary

Track 1 accurately ripped (confidence 4) [761A2AEA] (AR v2)
Track 2 accurately ripped (confidence 4) [00B86297] (AR v2)
Track 3 accurately ripped (confidence 4) [3CC9AE85] (AR v2)
Track 4 accurately ripped (confidence 4) [0C8D8B9B] (AR v2)
Track 5 accurately ripped (confidence 4) [188628BF] (AR v2)
Track 6 accurately ripped (confidence 4) [7921AAAA] (AR v2)
Track 7 accurately ripped (confidence 4) [5CB382D8] (AR v2)
Track 8 accurately ripped (confidence 4) [7E8F4B3C] (AR v2)
Track 9 accurately ripped (confidence 4) [41251EE4] (AR v2)
Track 10 accurately ripped (confidence 4) [925C5FB6] (AR v2)
Track 11 accurately ripped (confidence 4) [4861817F] (AR v2)
Track 12 accurately ripped (confidence 4) [01A23242] (AR v2)
Track 13 accurately ripped (confidence 4) [947D1977] (AR v2)
Track 14 accurately ripped (confidence 4) [9C07D916] (AR v2)

All tracks accurately ripped

End of status report

- CUETools DB Plugin V2.1.6

[CTDB TOCID: yG5B2ElqTNABK1uRnNfF0XORx2Q-] found
Submit result: already submitted
Track | CTDB Status
1 | (3/3) Accurately ripped
2 | (3/3) Accurately ripped
3 | (3/3) Accurately ripped
4 | (3/3) Accurately ripped
5 | (3/3) Accurately ripped
6 | (3/3) Accurately ripped
7 | (3/3) Accurately ripped
8 | (3/3) Accurately ripped
9 | (3/3) Accurately ripped
10 | (3/3) Accurately ripped
11 | (2/3) Accurately ripped, or (1/3) differs in 3039 samples @02:54:52-02:54:58
12 | (3/3) Accurately ripped
13 | (3/3) Accurately ripped
14 | (3/3) Accurately ripped

==== Log checksum 13B114A8A5B4F9C8BD1BC5695C411B2377CDA900119A41F3253997FD3EFA4D4B ====

foobar2000 1.2.6 / Dynamic Range Meter 1.1.1
log date: 2015-10-19 15:02:49

Analyzed: Tom Jones / Starboulevard (CD1)

DR Peak RMS Duration Track

DR11 0.00 dB -13.28 dB 3:07 01-Green Green Grass Of Home
DR11 0.00 dB -12.65 dB 3:36 02-Detroit City
DR10 -0.99 dB -13.46 dB 2:57 03-Funny Familiar Forgotten Feelings
DR8 -1.59 dB -11.38 dB 4:14 04-I'll Never Fall In Love Again
DR10 0.00 dB -13.38 dB 3:10 05-I'm Coming Home
DR11 0.00 dB -12.70 dB 3:23 06-Delilah
DR10 -0.67 dB -12.82 dB 2:56 07-Help Yourself
DR9 -1.19 dB -12.02 dB 2:59 08-A Minute Of Your Time
DR10 -0.10 dB -11.09 dB 3:13 09-Love Me Tonight
DR8 -0.97 dB -11.40 dB 3:18 10-Daughter Of Darkness
DR9 -0.87 dB -11.91 dB 2:55 11-She's A Lady
DR8 -1.57 dB -11.58 dB 3:25 12-Puppet Man
DR7 0.00 dB -10.12 dB 2:19 13-Till
DR8 -1.95 dB -13.39 dB 4:35 14-The Young New Mexican Puppeteer

Number of tracks: 14
Official DR value: DR9

Samplerate: 44100 Hz
Channels: 2
Bits per sample: 16
Bitrate: 889 kbps
Codec: FLAC

[CUETools log; Date: 19.10.2015 15:02:54; Version: 2.1.5]
[CTDB TOCID: yG5B2ElqTNABK1uRnNfF0XORx2Q-] found.
Track | CTDB Status
1 | (4/4) Accurately ripped
2 | (4/4) Accurately ripped
3 | (4/4) Accurately ripped
4 | (4/4) Accurately ripped
5 | (4/4) Accurately ripped
6 | (4/4) Accurately ripped
7 | (4/4) Accurately ripped
8 | (4/4) Accurately ripped
9 | (4/4) Accurately ripped
10 | (4/4) Accurately ripped
11 | (3/4) Accurately ripped, or (1/4) differs in 3039 samples @02:54:52-02:54:58
12 | (4/4) Accurately ripped
13 | (4/4) Accurately ripped
14 | (4/4) Accurately ripped
[AccurateRip ID: 0017bd45-00fc4d9e-c50acf0e] found.
Track [ CRC | V2 ] Status
01 [46c7609d|761a2aea] (0+4/4) Accurately ripped
02 [3f1f665b|00b86297] (0+4/4) Accurately ripped
03 [442eef08|3cc9ae85] (0+4/4) Accurately ripped
04 [ca995c67|0c8d8b9b] (0+4/4) Accurately ripped
05 [761b322e|188628bf] (0+4/4) Accurately ripped
06 [5a0b566e|7921aaaa] (0+4/4) Accurately ripped
07 [4407a902|5cb382d8] (0+4/4) Accurately ripped
08 [33e5b6b2|7e8f4b3c] (0+4/4) Accurately ripped
09 c67c303|41251ee4 (0+4/4) Accurately ripped
10 [f75c0bd8|925c5fb6] (0+4/4) Accurately ripped
11 [a23bd49a|4861817f] (0+4/4) Accurately ripped
12 [87933805|01a23242] (0+4/4) Accurately ripped
13 [8a157f11|947d1977] (0+4/4) Accurately ripped
14 [89217627|9c07d916] (0+4/4) Accurately ripped

Track Peak [ CRC32 ] [W/O NULL] [ LOG ]
-- 99,9 [DA6A1E69] [90AC1D81] CRC32
01 99,9 [F516B600] [457427CC]
02 99,9 [8D6E9D3C] [9A4920DA]
03 89,2 [FED23016] [F4E7C1F4]
04 83,2 [F6ECD697] [F7685C37]
05 99,9 [2F66459E] [F05BBFF2]
06 99,9 [CDD9F5AE] [6F09EA7E]
07 92,5 [2E2EA5A7] [44B73242]
08 87,2 [304EC8DB] [1395C88E]
09 98,8 [063F44B1] [F342E1C4]
10 89,3 [5F667A06] [D783B15B]
11 90,4 [EEF9B025] [86FE0EDD]
12 83,5 [6A1DADBF] [75BA90E0]
13 99,9 [1A1B2D7D] [72BB2E56]
14 79,9 [A0DC889B] [109A08D0]

http://i60.fastpic.ru/big/2015/1021/02/902c8ed0cb30f562765e169094991802.jpg

Track List CD2:

01. Letter To Lucille [03:06]
02. It's Not Unusual [02:02]
03. What's New Pussycat? [02:07]
04. Memphis, Tennesee [02:42]
05. It's Just A Matter Of Time [02:47]
06. Whatcha' Gonna Do [03:11]
07. Skye Boat Song [03:02]
08. Without Love [03:48]
09. Thunderball [02:55]
10. Chills And Fever [02:55]
11. Once Upon A Time [02:13]
12. If You Need Me [02:43]
13. I Need Your Loving [02:48]
14. Autumn Leaves [03:09]

Exact Audio Copy V1.0 beta 6 from 9. April 2015

EAC extraction logfile from 25. June 2015, 17:56

Tom Jones / Starboulevard (CD2)

Used drive : HL-DT-STDVDRAM GH22NS40 Adapter: 1 ID: 0

Read mode : Secure
Utilize accurate stream : Yes
Defeat audio cache : Yes
Make use of C2 pointers : No

Read offset correction

: 667
Overread into Lead-In and Lead-Out : No
Fill up missing offset samples with silence : Yes
Delete leading and trailing silent blocks : No
Null samples used in CRC calculations : Yes
Used interface
: Native Win32 interface for Win NT & 2000

Used output format : User Defined Encoder
Selected bitrate : 1024 kBit/s
Quality : High
Add ID3 tag : Yes
Command line compressor : C:\Program Files\Exact Audio Copy\Flac\flac.exe
Additional command line options : -V -8 -T "Date=%year%" -T "Genre=%genre%" %source%

TOC of the extracted CD Track | Start | Length | Start sector | End sector
--1 | 0:00.00 | 3:05.42 | 0 | 13916 2 | 3:05.42 | 2:01.52 | 13917 | 23043 3 | 5:07.19 | 2:06.24 | 23044 | 32517 4 | 7:13.43 | 2:41.01 | 32518 | 44593 5 | 9:54.44 | 2:46.44 | 44594 | 57087 6 | 12:41.13 | 3:10.54 | 57088 | 71391 7 | 15:51.67 | 3:01.29 | 71392 | 84995 8 | 18:53.21 | 3:47.19 | 84996 | 102039 9 | 22:40.40 | 2:54.32 | 102040 | 115121
10 | 25:34.72 | 2:54.26 | 115122 | 128197
11 | 28:29.23 | 2:12.01 | 128198 | 138098
12 | 30:41.24 | 2:42.24 | 138099 | 150272
13 | 33:23.48 | 2:47.23 | 150273 | 162820
14 | 36:10.71 | 3:08.74 | 162821 | 176994

Range status and errors

Selected range Filename I:\Rips\Tom Jones - Starboulevard (CD2).wav Peak level 99.9 %
Extraction speed 1.8 X
Range quality 100.0 %
Test CRC 76125A26
Copy CRC 76125A26
Copy OK

No errors occurred


AccurateRip summary

Track 1 accurately ripped (confidence 3) [215446ED] (AR v2)
Track 2 accurately ripped (confidence 3) [A14C8542] (AR v2)
Track 3 accurately ripped (confidence 4) [8B20E754] (AR v2)
Track 4 accurately ripped (confidence 3) [C14A8DA8] (AR v2)
Track 5 accurately ripped (confidence 3) [A19267D9] (AR v2)
Track 6 accurately ripped (confidence 3) [68EF78C7] (AR v2)
Track 7 accurately ripped (confidence 3) [64EA04F7] (AR v2)
Track 8 accurately ripped (confidence 4) [1F9A795C] (AR v2)
Track 9 accurately ripped (confidence 4) [6FBACD52] (AR v2)
Track 10 accurately ripped (confidence 4) [53760FBA] (AR v2)
Track 11 accurately ripped (confidence 4) [C9C8269D] (AR v2)
Track 12 accurately ripped (confidence 4) [41A94B94] (AR v2)
Track 13 accurately ripped (confidence 4) [7B58230B] (AR v2)
Track 14 accurately ripped (confidence 4) [546E0716] (AR v2)

All tracks accurately ripped

End of status report

- CUETools DB Plugin V2.1.6

[CTDB TOCID: 2iOnDE8OGRDojpl.Bi7DpaUnHuk-] found
Submit result: already submitted
Track | CTDB Status
1 | (3/3) Accurately ripped
2 | (3/3) Accurately ripped
3 | (3/3) Accurately ripped
4 | (3/3) Accurately ripped
5 | (3/3) Accurately ripped
6 | (3/3) Accurately ripped
7 | (2/3) Accurately ripped, or (1/3) differs in 435 samples @03:01:28
8 | (3/3) Accurately ripped
9 | (2/3) Accurately ripped, or (1/3) differs in 588 samples @02:54:29-02:54:31
10 | (3/3) Accurately ripped
11 | (3/3) Accurately ripped
12 | (3/3) Accurately ripped
13 | (3/3) Accurately ripped
14 | (3/3) Accurately ripped

==== Log checksum 65B2B25EBF8823F4BD3D11158F613F1BB31A79B0D39F19840657A65E5491DFD6 ====

foobar2000 1.2.6 / Dynamic Range Meter 1.1.1
log date: 2015-10-19 15:04:51

Analyzed: Tom Jones / Starboulevard (CD2)

DR Peak RMS Duration Track

DR10 -0.67 dB -12.53 dB 3:06 01-Letter To Lucille
DR11 -0.10 dB -12.83 dB 2:02 02-It's Not Unusual
DR10 -0.10 dB -14.11 dB 2:06 03-What's New Pussycat?
DR11 0.00 dB -13.88 dB 2:41 04-Memphis, Tennesee
DR8 -3.60 dB -12.74 dB 2:47 05-It's Just A Matter Of Time
DR9 -1.04 dB -12.45 dB 3:11 06-Whatcha' Gonna Do
DR8 -1.15 dB -10.39 dB 3:01 07-Skye Boat Song
DR8 -0.10 dB -11.06 dB 3:47 08-Without Love
DR9 -0.38 dB -11.47 dB 2:54 09-Thunderball
DR10 -0.30 dB -12.19 dB 2:54 10-Chills And Fever
DR10 -0.10 dB -12.28 dB 2:12 11-Once Upon A Time
DR10 -0.10 dB -12.83 dB 2:42 12-If You Need Me
DR8 -1.29 dB -10.87 dB 2:47 13-I Need Your Loving
DR8 -2.91 dB -12.73 dB 3:09 14-Autumn Leaves

Number of tracks: 14
Official DR value: DR9

Samplerate: 44100 Hz
Channels: 2
Bits per sample: 16
Bitrate: 888 kbps
Codec: FLAC

[CUETools log; Date: 19.10.2015 15:04:54; Version: 2.1.5]
[CTDB TOCID: 2iOnDE8OGRDojpl.Bi7DpaUnHuk-] found.
Track | CTDB Status
1 | (4/4) Accurately ripped
2 | (4/4) Accurately ripped
3 | (4/4) Accurately ripped
4 | (4/4) Accurately ripped
5 | (4/4) Accurately ripped
6 | (4/4) Accurately ripped
7 | (3/4) Accurately ripped, or (1/4) differs in 435 samples @03:01:28
8 | (4/4) Accurately ripped
9 | (3/4) Accurately ripped, or (1/4) differs in 588 samples @02:54:29-02:54:31
10 | (4/4) Accurately ripped
11 | (4/4) Accurately ripped
12 | (4/4) Accurately ripped
13 | (4/4) Accurately ripped
14 | (4/4) Accurately ripped
[AccurateRip ID: 0013da69-00d5946b-b109370e] found.
Track [ CRC | V2 ] Status
01 [1e1f2e32|215446ed] (0+3/3) Accurately ripped
02 [309be22e|a14c8542] (0+3/3) Accurately ripped
03 [7554d8ea|8b20e754] (0+4/4) Accurately ripped
04 [d7644190|c14a8da8] (0+3/3) Accurately ripped
05 [08c3c255|a19267d9] (0+3/3) Accurately ripped
06 [dcdad6a9|68ef78c7] (0+3/3) Accurately ripped
07 [849960fa|64ea04f7] (0+3/3) Accurately ripped
08 [0048eec3|1f9a795c] (0+4/4) Accurately ripped
09 [86191a01|6fbacd52] (0+4/4) Accurately ripped
10 [688a9b11|53760fba] (0+4/4) Accurately ripped
11 [3cb9a08a|c9c8269d] (0+4/4) Accurately ripped
12 [7b23abe1|41a94b94] (0+4/4) Accurately ripped
13 [54ff423b|7b58230b] (0+4/4) Accurately ripped
14 [a09939d6|546e0716] (0+4/4) Accurately ripped

Track Peak [ CRC32 ] [W/O NULL] [ LOG ]
-- 99,9 [76125A26] [AE3CCEA9] CRC32
01 92,5 [D4155148] A4B909B
02 98,8 [776DCA91] [484BE60E]
03 98,8 [F70306D3] [FA3B97F7]
04 99,9 [7DBD4FDD] [FA065C57]
05 66,0 11D8C29 [8F8831DD]
06 88,7 [CE00CC53] [70076AB3]
07 87,5 [4EA64DD8] [98A182BB]
08 98,8 [CE78D46B] [5CD045A9]
09 95,7 [8604354D] [45FC1EEA]
10 96,6 [C528838B] [12170BF3]
11 98,8 [34C07328] [A14E77C1]
12 98,8 [E06A0029] [6C4BA805]
13 86,2 [008A53DB] [AD626FFD]
14 71,4 [17E6C63C] [40684EEC]

http://i60.fastpic.ru/big/2015/1021/4d/dbf395427c5e8ff13e49453ad32d2e4d.jpg

http://i59.fastpic.ru/big/2015/1021/24/93ab8fa8b156f9f60059c845694ff224.jpg



DOWNLOAD LINKS:
Buy Premium To Support Me & Get Resumable Support & Max Speed


Links are Interchangeable - No Password - Single Extraction



Ad2

 
 
 
Dear visitor, you went to the site as an unregistered user. We encourage you to register or enter the site under your name.
 
   
 
 (Votes #: 0)