2013Zone For Latest Downloads

 
     
 
Legal Downloads » Music » Rotting Christ - Lucifer Over Athens (2015) [2CD, Limited Digipak]
Menu
Home Applications
Games Movies
Music TV Shows
Torrents Graphics

Sitemap

RSS
 
Advanced Search
Last News
Site Info
Top Contributors:
  1    supper88 32766
  2    admin 32671
  3    Whisky 10080
  4    Shark_ 8911
  5    creativelivenew 8706
  6    whathesupa 2799
  7    candymypost 840
  8    hvnteam 629
  9    vuong87 3


Articles:
  This Hour: 0
  Today: 0
  This Month: 20
  All Time: 515636


Torrents:
  Today: 0
  Yesterday: 0
  All Time: 156702


Membership:
  Registered Today :0
  This Hour:0
  This Month:0
  Total:14
  Banned:1

{online}
{inform_torrent}
Friend:
We Recomend
Trend
Trend

Search In Site

Music : Rotting Christ - Lucifer Over Athens (2015) [2CD, Limited Digipak]
 
http://i59.fastpic.ru/big/2015/1021/2a/fedc2a816b87063e780aa82dae3a682a.jpg

Rotting Christ - Lucifer Over Athens (2015)
EAC | Flac(Image) + Cue + Log & MP3 CBR 320Kbps
Season of Mist, SOM353D | ~ 1000 or 319 Mb | Scans(600dpi, jpg) -> 63 Mb
Black / Dark Metal

"Twenty-eight years and eleven full length albums into their career, flagship Hellenic black metal band Rotting Christ unleash Lucifer Over Athens, their second live album. Founded in 1987 by brothers Sakis and Themis Tolis along with Jim Mutilator, also known for his work with Varathron, Rotting Christ was one of the first Greek black metal bands and were the forerunners of that classic, theatrical Hellenic sound..."


Tracklist CD1:

01. Χ ξ ς
02. Dub sag ta ke
03. Athanatoi Este
04. Κατά τον δαίμονα του εαυτού
05. Nemecic
06. After Dark I Feel
07. Sorrowfull Farewell
08. Among Two Storms
09. Gloria de Domino Inferni
10. Feast of the Grand Whore
11. The Nereid of Esgalduin
12. Forest of N'Gai
13. The Sign of Evil Existence
14. Transform All Sufferings Into Plagues
15. Fgmenth, Thy Gift
16. Societas Satanas (Thou Art Lord Cover)

Exact Audio Copy V1.1 from 23. June 2015

EAC extraction logfile from 10. October 2015, 11:45

Rotting Christ / Lucifer Over Athens (CD1)

Used drive : ATAPI iHAS122 W Adapter: 2 ID: 0

Read mode : Secure
Utilize accurate stream : Yes
Defeat audio cache : Yes
Make use of C2 pointers : No

Read offset correction

: 48
Overread into Lead-In and Lead-Out : No
Fill up missing offset samples with silence : Yes
Delete leading and trailing silent blocks : No
Null samples used in CRC calculations : Yes
Used interface
: Installed external ASPI interface

Used output format : User Defined Encoder
Selected bitrate : 1024 kBit/s
Quality : High
Add ID3 tag : No
Command line compressor : C:\Program Files\FLAC\flac.exe
Additional command line options : -V -8 -T "Date=%year%" -T "Genre=%genre%" -T"COMMENT=Ripped by Ilijan" -8 -V %source%

TOC of the extracted CD Track | Start | Length | Start sector | End sector
--1 | 0:00.00 | 5:40.29 | 0 | 25528 2 | 5:40.29 | 3:01.46 | 25529 | 39149 3 | 8:42.00 | 5:18.00 | 39150 | 62999 4 | 14:00.00 | 4:48.00 | 63000 | 84599 5 | 18:48.00 | 4:31.00 | 84600 | 104924 6 | 23:19.00 | 4:03.00 | 104925 | 123149 7 | 27:22.00 | 4:38.00 | 123150 | 143999 8 | 32:00.00 | 4:21.00 | 144000 | 163574 9 | 36:21.00 | 1:34.69 | 163575 | 170693
10 | 37:55.69 | 3:29.06 | 170694 | 186374
11 | 41:25.00 | 3:39.00 | 186375 | 202799
12 | 45:04.00 | 4:31.00 | 202800 | 223124
13 | 49:35.00 | 2:01.00 | 223125 | 232199
14 | 51:36.00 | 4:01.53 | 232200 | 250327
15 | 55:37.53 | 4:01.47 | 250328 | 268449
16 | 59:39.25 | 3:51.35 | 268450 | 285809

Range status and errors

Selected range Filename D:\?Л?ЯН\Rotting Christ - Lucifer Over Athens (CD1).wav Peak level 100.0 %
Extraction speed 4.0 X
Range quality 100.0 %
Test CRC 1A8C310E
Copy CRC 1A8C310E
Copy OK

No errors occurred


AccurateRip summary

Track 1 not present in database
Track 2 not present in database
Track 3 not present in database
Track 4 not present in database
Track 5 not present in database
Track 6 not present in database
Track 7 not present in database
Track 8 not present in database
Track 9 not present in database
Track 10 not present in database
Track 11 not present in database
Track 12 not present in database
Track 13 not present in database
Track 14 not present in database
Track 15 not present in database
Track 16 not present in database

None of the tracks are present in the AccurateRip database

End of status report

- CUETools DB Plugin V2.1.6

[CTDB TOCID: ma0l1hTQCP5GChydOJasBqvUCE4-] found
Submit result: ma0l1hTQCP5GChydOJasBqvUCE4- has been confirmed
Track | CTDB Status
1 | (1/1) Accurately ripped
2 | (1/1) Accurately ripped
3 | (1/1) Accurately ripped
4 | (1/1) Accurately ripped
5 | (1/1) Accurately ripped
6 | (1/1) Accurately ripped
7 | (1/1) Accurately ripped
8 | (1/1) Accurately ripped
9 | (1/1) Accurately ripped
10 | (1/1) Accurately ripped
11 | (1/1) Accurately ripped
12 | (1/1) Accurately ripped
13 | (1/1) Accurately ripped
14 | (1/1) Accurately ripped
15 | (1/1) Accurately ripped
16 | (1/1) Accurately ripped

==== Log checksum E77F433076F33C274C9484582ADB2D5340AA783F696875FBD8150F7C0315DFE4 ====

foobar2000 1.2.9 / Dynamic Range Meter 1.1.1
log date: 2015-10-19 20:20:57

Analyzed: Rotting Christ / Lucifer Over Athens (CD1)

DR Peak RMS Duration Track

DR6 0.00 dB -8.78 dB 5:40 01-XEC
DR5 0.00 dB -6.23 dB 3:02 02-Dub Sag Ta Ke
DR5 0.00 dB -6.58 dB 5:18 03-Athanatoi Este
DR6 0.00 dB -6.21 dB 4:48 04-Kata Ton Daimona Eaytoy
DR5 0.00 dB -6.47 dB 4:31 05-Nemecic
DR6 0.00 dB -7.00 dB 4:03 06-After Dark I Feel
DR6 0.00 dB -6.86 dB 4:38 07-Sorrowfull Farewell
DR6 0.00 dB -7.03 dB 4:21 08-Among Two Storms
DR13 0.00 dB -16.20 dB 1:35 09-Gloria de Domino Inferni
DR7 0.00 dB -8.29 dB 3:29 10-Feast of the Grand Whore
DR7 0.00 dB -7.85 dB 3:39 11-The Nereid of Esgalduin
DR7 0.00 dB -8.32 dB 4:31 12-Forest of N'Gai
DR6 0.00 dB -7.45 dB 2:01 13-The Sign of Evil Existence
DR7 0.00 dB -7.99 dB 4:02 14-Transform All Sufferings Into Plagues
DR8 0.00 dB -8.54 dB 4:02 15-Fgmenth, Thy Gift
DR7 0.00 dB -7.65 dB 3:51 16-Societas Satanas (Thou Art Lord Cover)

Number of tracks: 16
Official DR value: DR7

Samplerate: 44100 Hz
Channels: 2
Bits per sample: 16
Bitrate: 990 kbps
Codec: FLAC

[CUETools log; Date: 19.10.2015 20:11:24; Version: 2.1.4]
[CTDB TOCID: ma0l1hTQCP5GChydOJasBqvUCE4-] found.
Track | CTDB Status
1 | (5/5) Accurately ripped
2 | (5/5) Accurately ripped
3 | (5/5) Accurately ripped
4 | (5/5) Accurately ripped
5 | (5/5) Accurately ripped
6 | (5/5) Accurately ripped
7 | (5/5) Accurately ripped
8 | (5/5) Accurately ripped
9 | (5/5) Accurately ripped
10 | (5/5) Accurately ripped
11 | (5/5) Accurately ripped
12 | (5/5) Accurately ripped
13 | (5/5) Accurately ripped
14 | (5/5) Accurately ripped
15 | (5/5) Accurately ripped
16 | (5/5) Accurately ripped
[AccurateRip ID: 00272e1f-01ccf8d8-e00ee210] found.
Track [ CRC | V2 ] Status
01 [c686909e|ffeb65e6] (0+3/3) Accurately ripped
02 [dac12b82|c8a54bc2] (0+3/3) Accurately ripped
03 [ebf938c7|005caec9] (0+3/3) Accurately ripped
04 [e744625b|ed6abf1d] (0+3/3) Accurately ripped
05 [6d49e9c2|5acb466c] (0+3/3) Accurately ripped
06 [ecad894f|419114dd] (0+3/3) Accurately ripped
07 [f9d3d96c|204aa3cc] (0+3/3) Accurately ripped
08 72aa638|268c61ad (0+3/3) Accurately ripped
09 [0104af17|b36271f1] (0+3/3) Accurately ripped
10 [390f26ee|80aa3f76] (0+3/3) Accurately ripped
11 [729ab3ef|a6457c7f] (0+3/3) Accurately ripped
12 [078ea6ff|955c74b7] (0+3/3) Accurately ripped
13 [568d309b|564b83a9] (0+3/3) Accurately ripped
14 [9302b4ae|ff60311a] (0+3/3) Accurately ripped
15 [a4883796|52a31433] (0+3/3) Accurately ripped
16 [e97550c8|7fab1e26] (0+3/3) Accurately ripped

Track Peak [ CRC32 ] [W/O NULL] [ LOG ]
-- 100,0 [1A8C310E] [9953CFB4] CRC32
01 100,0 [2995DBC6] [7025C9E9]
02 100,0 [2C5EF82D] [6D424B55]
03 100,0 [F7E6565A] [A66BF2D7]
04 100,0 [9CAF9CAA] [99A597D6]
05 100,0 [A9D0D07B] [2F4EF239]
06 100,0 [029E6653] [41C42D09]
07 100,0 [ED457968] [A0B733EA]
08 100,0 [FF15D5C4] [20FCB685]
09 100,0 [5718B9BA] [C88CD8BA]
10 100,0 [19B087DE] [FE8D02D7]
11 100,0 [A5B3E38E] [0BFE19E6]
12 100,0 [69C93047] [162C6ABF]
13 100,0 [96179BA1] [A6CE53C0]
14 100,0 [6542F6A8] [02776FC1]
15 100,0 [372D227F] [65CBDE8A]
16 100,0 [624B8671] [5FC8128C]

http://i67.fastpic.ru/big/2015/1021/bc/38fd9ec513f50ce540fb373b42d345bc.jpg

Tracklist CD2:

01. Demonon Vrosis
02. Quintessence
03. The Call of the Aethyrs
04. In Yumen - Xibalba
05. Grandis Spiritus Diavolos
06. Welcome to Hel
07. King of a Stellar War
08. Archon
09. Exiled Archangels
10. Dive the Deepest Abyss
11. The Fourth Knight of Revelation
12. The Sign of Prime Creation
13. Non Serviam
14. Enuma Elish
15. Noctis Era

Exact Audio Copy V1.1 from 23. June 2015

EAC extraction logfile from 10. October 2015, 12:27

Rotting Christ / Lucifer Over Athens (CD2)

Used drive : ATAPI iHAS122 W Adapter: 2 ID: 0

Read mode : Secure
Utilize accurate stream : Yes
Defeat audio cache : Yes
Make use of C2 pointers : No

Read offset correction

: 48
Overread into Lead-In and Lead-Out : No
Fill up missing offset samples with silence : Yes
Delete leading and trailing silent blocks : No
Null samples used in CRC calculations : Yes
Used interface
: Installed external ASPI interface

Used output format : User Defined Encoder
Selected bitrate : 1024 kBit/s
Quality : High
Add ID3 tag : No
Command line compressor : C:\Program Files\FLAC\flac.exe
Additional command line options : -V -8 -T "Date=%year%" -T "Genre=%genre%" -T"COMMENT=Ripped by Ilijan" -8 -V %source%

TOC of the extracted CD Track | Start | Length | Start sector | End sector
--1 | 0:00.00 | 4:57.55 | 0 | 22329 2 | 4:57.55 | 4:28.69 | 22330 | 42498 3 | 9:26.49 | 4:49.06 | 42499 | 64179 4 | 14:15.55 | 6:33.00 | 64180 | 93654 5 | 20:48.55 | 5:46.39 | 93655 | 119643 6 | 26:35.19 | 4:36.03 | 119644 | 140346 7 | 31:11.22 | 6:06.38 | 140347 | 167834 8 | 37:17.60 | 4:04.70 | 167835 | 186204 9 | 41:22.55 | 4:16.19 | 186205 | 205423
10 | 45:38.74 | 3:29.56 | 205424 | 221154
11 | 49:08.55 | 4:29.70 | 221155 | 241399
12 | 53:38.50 | 3:24.44 | 241400 | 256743
13 | 57:03.19 | 4:29.33 | 256744 | 276951
14 | 61:32.52 | 4:49.19 | 276952 | 298645
15 | 66:21.71 | 5:33.48 | 298646 | 323668

Range status and errors

Selected range Filename D:\?Л?ЯН\Rotting Christ - Lucifer Over Athens (CD2).wav Peak level 100.0 %
Extraction speed 4.3 X
Range quality 100.0 %
Test CRC F6356E40
Copy CRC F6356E40
Copy OK

No errors occurred


AccurateRip summary

Track 1 not present in database
Track 2 not present in database
Track 3 not present in database
Track 4 not present in database
Track 5 not present in database
Track 6 not present in database
Track 7 not present in database
Track 8 not present in database
Track 9 not present in database
Track 10 not present in database
Track 11 not present in database
Track 12 not present in database
Track 13 not present in database
Track 14 not present in database
Track 15 not present in database

None of the tracks are present in the AccurateRip database

End of status report

- CUETools DB Plugin V2.1.6

[CTDB TOCID: 83yab8wfuc5IyrEHMv9JHtjrXTU-] found
Submit result: 83yab8wfuc5IyrEHMv9JHtjrXTU- has been confirmed
Track | CTDB Status
1 | (1/1) Accurately ripped
2 | (1/1) Accurately ripped
3 | (1/1) Accurately ripped
4 | (1/1) Accurately ripped
5 | (1/1) Accurately ripped
6 | (1/1) Accurately ripped
7 | (1/1) Accurately ripped
8 | (1/1) Accurately ripped
9 | (1/1) Accurately ripped
10 | (1/1) Accurately ripped
11 | (1/1) Accurately ripped
12 | (1/1) Accurately ripped
13 | (1/1) Accurately ripped
14 | (1/1) Accurately ripped
15 | (1/1) Accurately ripped

==== Log checksum B98065C5FA942C2A9C238914DBE6DED0452E35233A325BB88D85D55B21AD9087 ====

foobar2000 1.2.9 / Dynamic Range Meter 1.1.1
log date: 2015-10-19 20:21:23

Analyzed: Rotting Christ / Lucifer Over Athens (CD2)

DR Peak RMS Duration Track

DR7 0.00 dB -8.46 dB 4:58 01-Demonon Vrosis
DR7 0.00 dB -7.87 dB 4:29 02-Quintessence
DR7 0.00 dB -8.58 dB 4:49 03-The Call of the Aethyrs
DR6 0.00 dB -7.25 dB 6:33 04-In Yumen - Xibalba
DR7 0.00 dB -8.12 dB 5:47 05-Grandis Spiritus Diavolos
DR6 0.00 dB -7.02 dB 4:36 06-Welcome to Hel
DR6 0.00 dB -7.35 dB 6:07 07-King of a Stellar War
DR6 0.00 dB -6.90 dB 4:05 08-Archon
DR6 0.00 dB -7.48 dB 4:16 09-Exiled Archangels
DR7 0.00 dB -7.47 dB 3:30 10-Dive the Deepest Abyss
DR7 0.00 dB -7.51 dB 4:30 11-The Fourth Knight of Revelation
DR6 0.00 dB -7.09 dB 3:25 12-The Sign of Prime Creation
DR6 0.00 dB -6.85 dB 4:29 13-Non Serviam
DR6 0.00 dB -6.82 dB 4:49 14-Enuma Elish
DR7 0.00 dB -7.98 dB 5:34 15-Noctis Era

Number of tracks: 15
Official DR value: DR6

Samplerate: 44100 Hz
Channels: 2
Bits per sample: 16
Bitrate: 1012 kbps
Codec: FLAC

[CUETools log; Date: 19.10.2015 20:14:29; Version: 2.1.4]
[CTDB TOCID: 83yab8wfuc5IyrEHMv9JHtjrXTU-] found.
Track | CTDB Status
1 | (5/5) Accurately ripped
2 | (5/5) Accurately ripped
3 | (5/5) Accurately ripped
4 | (5/5) Accurately ripped
5 | (5/5) Accurately ripped
6 | (5/5) Accurately ripped
7 | (5/5) Accurately ripped
8 | (5/5) Accurately ripped
9 | (5/5) Accurately ripped
10 | (5/5) Accurately ripped
11 | (5/5) Accurately ripped
12 | (5/5) Accurately ripped
13 | (5/5) Accurately ripped
14 | (5/5) Accurately ripped
15 | (5/5) Accurately ripped
[AccurateRip ID: 0028994d-01c7d3d6-ef10db0f] found.
Track [ CRC | V2 ] Status
01 [121cb454|52ec62ab] (0+0/2) No match
02 [d5d42f34|3e456129] (0+0/2) No match
03 [aaee7478|f69b2f98] (0+0/2) No match
04 [a744a9c7|1d6dd8ec] (0+0/2) No match
05 [892311bf|9f3f4f69] (0+0/2) No match
06 [221c083d|808bf479] (0+0/2) No match
07 [f990eb56|3cc2d070] (0+0/2) No match
08 [2615ca5b|09fe2c53] (0+0/2) No match
09 [cdd5763e|4a9725b3] (0+0/2) No match
10 93ab39c|8b281be3 (0+0/2) No match
11 [6fea008b|acd184fe] (0+0/2) No match
12 [3e47671a|0a713d63] (0+0/2) No match
13 [ee9c1c17|c14152d9] (0+0/2) No match
14 [ed460bb3|90a975ed] (0+0/2) No match
15 [81bc692b|a4d45944] (0+0/2) No match
Offsetted by 42:
01 [9d07d3c6] (0/2) No match (V2 was not tested)
02 [62cf1b67] (0/2) No match (V2 was not tested)
03 [617f4abb] (0/2) No match (V2 was not tested)
04 [f96241ea] (0/2) No match (V2 was not tested)
05 [ca2cff09] (0/2) No match (V2 was not tested)
06 [52b840b0] (0/2) No match (V2 was not tested)
07 [771a61c7] (0/2) No match (V2 was not tested)
08 [7155443d] (0/2) No match (V2 was not tested)
09 [d277284f] (0/2) No match (V2 was not tested)
10 [202509d9] (0/2) No match (V2 was not tested)
11 [33cc228a] (0/2) No match (V2 was not tested)
12 [2b4319b9] (0/2) No match (V2 was not tested)
13 [d485965d] (0/2) No match (V2 was not tested)
14 [5e2ede88] (0/2) No match (V2 was not tested)
15 [ce1e36e7] (0/2) No match (V2 was not tested)

Track Peak [ CRC32 ] [W/O NULL] [ LOG ]
-- 100,0 [F6356E40] [A8C86637] CRC32
01 100,0 [0FE53018] [A537BA31]
02 100,0 [50F2D83B] [938E57A8]
03 100,0 [77F4C60F] [AFAE004A]
04 100,0 [1306D955] [79A961D0]
05 100,0 [E7FA8CAB] [E86FFF66]
06 100,0 [23475BEA] [D5E8B2CB]
07 100,0 [DF6BF251] [8055E4F4]
08 100,0 [26C76B08] [942DBB0B]
09 100,0 [C42F61FE] [694A8BCC]
10 100,0 2BAD809 [609D3AED]
11 100,0 [8282E476] [F99192F2]
12 100,0 [5893A24E] [00A98EC8]
13 100,0 [43276FC2] [0BC64D61]
14 100,0 [591EA9A6] FFDB1EA
15 100,0 [1B0DF295] [E446BEAF]

Musicians:

Sakis Tolis - Guitars, Vocals
Themis Tolis - Drums
Van Ace - Bass
George Emmanuel - Guitars


http://i68.fastpic.ru/big/2015/1021/3e/469e34d3eacfcd9ecc3694f39380303e.jpg

All thanks go to ?Л?ЯН

Download Rotting Christ - Lucifer Over Athens (2015):

DOWNLOAD LINKS:
Buy Premium To Support Me & Get Resumable Support & Max Speed


Links are Interchangeable - No Password - Single Extraction

 
 
 
Dear visitor, you went to the site as an unregistered user. We encourage you to register or enter the site under your name.
 
   
 
 (Votes #: 0)