2013Zone For Latest Downloads

 
     
 
Legal Downloads » Music » Jane Birkin & Serge Gainsbourg - Je T'aime... Moi Non Plus (1969) {Mercury Records - Vinyl Replica Reissue 2011 Set, CD 1of12}
Menu
Home Applications
Games Movies
Music TV Shows
Torrents Graphics

Sitemap

RSS
 
Advanced Search
Last News
Site Info
Top Contributors:
  1    supper88 32766
  2    admin 32671
  3    Whisky 10080
  4    Shark_ 8911
  5    creativelivenew 8706
  6    whathesupa 2799
  7    candymypost 840
  8    hvnteam 629
  9    vuong87 3


Articles:
  This Hour: 0
  Today: 0
  This Month: 40
  All Time: 515636


Torrents:
  Today: 0
  Yesterday: 0
  All Time: 156702


Membership:
  Registered Today :0
  This Hour:0
  This Month:0
  Total:14
  Banned:1

{online}
{inform_torrent}
Friend:
We Recomend
Trend
Trend

Search In Site

Music : Jane Birkin & Serge Gainsbourg - Je T'aime... Moi Non Plus (1969) {Mercury Records - Vinyl Replica Reissue 2011 Set, CD 1of12}
 

http://i59.fastpic.ru/big/2015/1022/f5/ed53991523001e9b6a66a035c68d2df5.jpg
Jane Birkin & Serge Gainsbourg - Je T'aime... Moi Non Plus (1969) {Mercury Records - Vinyl Replica Reissue 2011 Set, CD 1of12}
EAC rip (secure mode) | FLAC (tracks)+CUE+LOG -> 195 Mb | MP3 @320 -> 74 Mb
Full Artwork @ 300 dpi (png) -> 14 Mb | 5% repair rar
© 2011 Fontana / Mercury / Universal | 277 163-4
Pop / Baroque Pop / Cabaret / French Pop / Jazz Pop

"This collection of vintage 1960s orchestral pop from the master of surreal Gallic eroticism includes kitsch masterpieces like "69 Annee Erotique" and Jane Birkin and Serge Gainsbourg's chart-topping "Je T'Aime (Moi Non Plus)," in a procession of jazzy instrumentals accompanied by Gainsbourg's throaty, Gitanes-coated vocals and the pertly sexy interpolations of his stunning wife."

"Jane Birkin/Serge Gainsbourg (also known as Je t'aime... moi non plus) is an album featuring duets and solo performances by Serge Gainsbourg and his then lover, Jane Birkin. It was released in 1969 and included the worldwide hit "Je t'aime... moi non plus", which achieved notoriety for its salacious lyrics with a backing of ecstatic female moaning, culminating in an apparent orgasm at the song's finale."


tracklist:
01 - Je T'aime Moi Non Plus
02 - L'Ananamour
03 - Orang Outan
04 - Sous Le Soleil Exactement
05 - 18 - 39
06 - 69 Annee Erotique
07 - Jane B.
08 - Elisa
09 - Le Canari Est Sur Le Balcon
10 - Les Sucettes
11 - Manon

Exact Audio Copy V1.0 beta 1 from 15. November 2010

EAC extraction logfile from 22. January 2012, 15:48

Jane Birkin & Serge Gainsbourg / Je T'aime... Moi Non Plus

Used drive : PHILIPS DVDR1628P1 Adapter: 4 ID: 0

Read mode : Secure
Utilize accurate stream : Yes
Defeat audio cache : Yes
Make use of C2 pointers : No

Read offset correction

: 618
Overread into Lead-In and Lead-Out : No
Fill up missing offset samples with silence : Yes
Delete leading and trailing silent blocks : No
Null samples used in CRC calculations : Yes
Used interface
: Native Win32 interface for Win NT & 2000
Gap handling
: Appended to previous track

Used output format : User Defined Encoder
Selected bitrate : 256 kBit/s
Quality : High
Add ID3 tag : No
Command line compressor : C:\Program Files\FLAC\flac.exe
Additional command line options : -8 -V -T "ARTIST=%a" -T "TITLE=%t" -T "ALBUM=%g" -T "DATE=%y" -T "TRACKNUMBER=%n" -T "TOTALTRACKS=%x" -T "GENRE=%m" -T "ALBUMARTIST=%v" -T "ALBUM ARTIST=%v" -T "COMMENT=EAC Secure Mode, Test & Copy, AccurateRip, FLAC -8" %s

TOC of the extracted CD Track | Start | Length | Start sector | End sector
--1 | 0:00.00 | 4:23.72 | 0 | 19796 2 | 4:23.72 | 2:17.70 | 19797 | 30141 3 | 6:41.67 | 2:28.03 | 30142 | 41244 4 | 9:09.70 | 2:52.27 | 41245 | 54171 5 | 12:02.22 | 2:39.68 | 54172 | 66164 6 | 14:42.15 | 3:21.45 | 66165 | 81284 7 | 18:03.60 | 3:09.07 | 81285 | 95466 8 | 21:12.67 | 2:31.25 | 95467 | 106816 9 | 23:44.17 | 2:20.08 | 106817 | 117324
10 | 26:04.25 | 2:37.72 | 117325 | 129171
11 | 28:42.22 | 2:41.30 | 129172 | 141276

Track 1 Filename C:\01 - Je T'aime Moi Non Plus.wav Pre-gap length 0:00:02.00 Peak level 100.0 %
Extraction speed 1.3 X
Track quality 100.0 %
Test CRC DEF7E36F
Copy CRC DEF7E36F
Cannot be verified as accurate (confidence 10) [C0BAAD7D], AccurateRip returned [594811C9]
Copy OK

Track 2 Filename C:\02 - L'Ananamour.wav Pre-gap length 0:00:01.60 Peak level 100.0 %
Extraction speed 1.3 X
Track quality 100.0 %
Test CRC 89E5DAFB
Copy CRC 89E5DAFB
Cannot be verified as accurate (confidence 10) [C860DC03], AccurateRip returned [D71411D9]
Copy OK

Track 3 Filename C:\03 - Orang Outan.wav Pre-gap length 0:00:01.57 Peak level 89.1 %
Extraction speed 1.4 X
Track quality 100.0 %
Test CRC 1A29C761
Copy CRC 1A29C761
Cannot be verified as accurate (confidence 10) [A087AD3C], AccurateRip returned [D4E9006B]
Copy OK

Track 4 Filename C:\04 - Sous Le Soleil Exactement.wav Pre-gap length 0:00:02.18 Peak level 100.0 %
Extraction speed 1.3 X
Track quality 99.9 %
Test CRC 86503D11
Copy CRC 86503D11
Cannot be verified as accurate (confidence 10) [9F12A32D], AccurateRip returned [FFF50992]
Copy OK

Track 5 Filename C:\05 - 18 - 39.wav Pre-gap length 0:00:02.02 Peak level 100.0 %
Extraction speed 1.6 X
Track quality 100.0 %
Test CRC 8D246E52
Copy CRC 8D246E52
Cannot be verified as accurate (confidence 10) [2A87E3A1], AccurateRip returned [96035153]
Copy OK

Track 6 Filename C:\06 - 69 Annee Erotique.wav Pre-gap length 0:00:02.10 Peak level 100.0 %
Extraction speed 1.7 X
Track quality 100.0 %
Test CRC 6CCD1DF6
Copy CRC 6CCD1DF6
Cannot be verified as accurate (confidence 10) [7A750FAF], AccurateRip returned [55863260]
Copy OK

Track 7 Filename C:\07 - Jane B..wav Pre-gap length 0:00:03.08 Peak level 100.0 %
Extraction speed 1.8 X
Track quality 100.0 %
Test CRC 5624545F
Copy CRC 5624545F
Cannot be verified as accurate (confidence 10) [F70E123B], AccurateRip returned [1259893D]
Copy OK

Track 8 Filename C:\08 - Elisa.wav Pre-gap length 0:00:02.57 Peak level 94.4 %
Extraction speed 1.8 X
Track quality 100.0 %
Test CRC B945E4EA
Copy CRC B945E4EA
Cannot be verified as accurate (confidence 10) [555F2215], AccurateRip returned [C12A62A6]
Copy OK

Track 9 Filename C:\09 - Le Canari Est Sur Le Balcon.wav Pre-gap length 0:00:01.62 Peak level 89.1 %
Extraction speed 1.5 X
Track quality 99.9 %
Test CRC 846FF139
Copy CRC 846FF139
Cannot be verified as accurate (confidence 10) [0D3D1D75], AccurateRip returned [CA6869A1]
Copy OK

Track 10 Filename C:\10 - Les Sucettes.wav Pre-gap length 0:00:01.35 Peak level 100.0 %
Extraction speed 1.9 X
Track quality 100.0 %
Test CRC B50E7D18
Copy CRC B50E7D18
Cannot be verified as accurate (confidence 10) 2B74239, AccurateRip returned [A34FE494]
Copy OK

Track 11 Filename C:\11 - Manon.wav Pre-gap length 0:00:02.07 Peak level 100.0 %
Extraction speed 1.7 X
Track quality 99.9 %
Test CRC C4723445
Copy CRC C4723445
Cannot be verified as accurate (confidence 9) [8DDA8EB7], AccurateRip returned 7EF15A3
Copy OK

No tracks could be verified as accurate
You may have a different pressing from the one(s) in the database

No errors occurred

End of status report

==== Log checksum 6B30898FF7EB897E8E2F40EB7252BE728E9EB1BC425A9974D63D842C7862E224 ====

http://i60.fastpic.ru/big/2015/1022/aa/35dd48455badf051d9df87655c3cc8aa.jpg

http://i57.fastpic.ru/big/2015/1022/2a/55a289a5aabdf7f8ad12519727d56e2a.jpg


NEXT -> more Serge Gainsbourg Mercury Records - Vinyl Replica Reissue 2011...
DOWNLOAD LINKS:
Buy Premium To Support Me & Get Resumable Support & Max Speed


Links are Interchangeable - No Password - Single Extraction

 
 
 
Dear visitor, you went to the site as an unregistered user. We encourage you to register or enter the site under your name.
 
   
 
 (Votes #: 0)