2013Zone For Latest Downloads

 
     
 
Legal Downloads » Music » David Bowie - Heroes (1977) [EMI TOCP-70151, Japan]
Menu
Home Applications
Games Movies
Music TV Shows
Torrents Graphics

Sitemap

RSS
 
Advanced Search
Last News
Site Info
Top Contributors:
  1    supper88 32766
  2    admin 32671
  3    Whisky 10080
  4    Shark_ 8911
  5    creativelivenew 8706
  6    whathesupa 2799
  7    candymypost 840
  8    hvnteam 629
  9    vuong87 3


Articles:
  This Hour: 0
  Today: 0
  This Month: 20
  All Time: 515636


Torrents:
  Today: 0
  Yesterday: 0
  All Time: 156702


Membership:
  Registered Today :0
  This Hour:0
  This Month:0
  Total:14
  Banned:1

{online}
{inform_torrent}
Friend:
We Recomend
Trend
Trend

Search In Site

Music : David Bowie - Heroes (1977) [EMI TOCP-70151, Japan]
 
http://i59.fastpic.ru/big/2015/1022/c4/5324fb42ee9b50fdd7ece92bf7a7a4c4.jpg

David Bowie - Heroes (1977)
EAC | Flac(Image) + Cue + Log & MP3 CBR 320Kbps
2007 | EMI, TOCP-70151 | ~ 261 or 102 Mb | Scans(600dpi, jpg) -> 76 Mb
Experimental / Glam Rock

"Repeating the formula of Low's half-vocal/half-instrumental structure, Heroes develops and strengthens the sonic innovations David Bowie and Brian Eno explored on their first collaboration. The vocal songs are fuller, boasting harder rhythms and deeper layers of sound. Much of the harder-edged sound of Heroes is due to Robert Fripp's guitar, which provides a muscular foundation for the electronics, especially on the relatively conventional rock songs..."


Tracklist:

01. Beauty And The Beast 3:36
02. Joe The Lion 3:07
03. 'Heroes' 6:10
04. Sons Of The Silent Age 3:19
05. Blackout 3:49
06. V-2 Schneider 3:11
07. Sense Of Doubt 3:57
08. Moss Garden 5:05
09. Neukoln 4:35
10. The Secret Life Of Arabia 3:45

Exact Audio Copy V1.1 from 23. June 2015

EAC extraction logfile from 16. October 2015, 21:57

David Bowie / Heroes (TOCP-70151)

Used drive : PLEXTOR DVDR PX-891SA Adapter: 1 ID: 0

Read mode : Secure
Utilize accurate stream : Yes
Defeat audio cache : Yes
Make use of C2 pointers : No

Read offset correction

: 6
Overread into Lead-In and Lead-Out : No
Fill up missing offset samples with silence : Yes
Delete leading and trailing silent blocks : No
Null samples used in CRC calculations : Yes
Used interface
: Native Win32 interface for Win NT & 2000

Used output format : User Defined Encoder
Selected bitrate : 128 kBit/s
Quality : High
Add ID3 tag : No
Command line compressor : C:\Program Files (x86)\Exact Audio Copy\Flac\flac.exe
Additional command line options : -V -8 -T "Genre=%genre%" -T "Artist=%artist%" -T "Title=%title%" -T "Album=%albumtitle%" -T "Date=%year%" -T "Tracknumber=%tracknr%" -T "Comment=%comment%" %source%

TOC of the extracted CD Track | Start | Length | Start sector | End sector
--1 | 0:00.00 | 3:36.35 | 0 | 16234 2 | 3:36.35 | 3:07.27 | 16235 | 30286 3 | 6:43.62 | 6:10.28 | 30287 | 58064 4 | 12:54.15 | 3:19.12 | 58065 | 73001 5 | 16:13.27 | 3:49.20 | 73002 | 90196 6 | 20:02.47 | 3:11.10 | 90197 | 104531 7 | 23:13.57 | 3:57.35 | 104532 | 122341 8 | 27:11.17 | 5:04.60 | 122342 | 145201 9 | 32:16.02 | 4:34.70 | 145202 | 165821
10 | 36:50.72 | 3:45.15 | 165822 | 182711

Range status and errors

Selected range Filename H:\dafnaplus\David Bowie\Heroes\David Bowie - Heroes (TOCP-70151).wav Peak level 97.2 %
Extraction speed 2.8 X
Range quality 100.0 %
Test CRC 345FE795
Copy CRC 345FE795
Copy OK

No errors occurred


AccurateRip summary

Track 1 accurately ripped (confidence 7) [47281E32] (AR v2)
Track 2 accurately ripped (confidence 7) [97E57BDF] (AR v2)
Track 3 accurately ripped (confidence 7) [C14D529A] (AR v2)
Track 4 accurately ripped (confidence 7) [344FAC31] (AR v2)
Track 5 accurately ripped (confidence 7) [E917722F] (AR v2)
Track 6 accurately ripped (confidence 7) [69C84E90] (AR v2)
Track 7 accurately ripped (confidence 7) [8DD18FDD] (AR v2)
Track 8 accurately ripped (confidence 7) [5ECA539B] (AR v2)
Track 9 accurately ripped (confidence 7) [EADD5E5A] (AR v2)
Track 10 accurately ripped (confidence 7) 52797AF (AR v2)

All tracks accurately ripped

End of status report

- CUETools DB Plugin V2.1.6

[CTDB TOCID: 80upfDNxZpVMdKqA0ZqwouRQXew-] found
Submit result: 80upfDNxZpVMdKqA0ZqwouRQXew- has been confirmed
Track | CTDB Status
1 | (15/15) Accurately ripped
2 | (15/15) Accurately ripped
3 | (15/15) Accurately ripped
4 | (15/15) Accurately ripped
5 | (15/15) Accurately ripped
6 | (15/15) Accurately ripped
7 | (14/15) Accurately ripped
8 | (15/15) Accurately ripped
9 | (15/15) Accurately ripped
10 | (15/15) Accurately ripped

==== Log checksum 5293552CF468A2B4D327CC28B39CC92FC94E0908F4973CBF5ABE23307BD17120 ====

foobar2000 1.2.9 / Dynamic Range Meter 1.1.1
log date: 2015-10-20 11:17:56

Analyzed: David Bowie / Heroes (TOCP-70151)

DR Peak RMS Duration Track

DR10 -0.41 dB -11.98 dB 3:36 01-Beauty And The Beast
DR9 -0.75 dB -11.38 dB 3:07 02-Joe The Lion
DR9 -0.70 dB -11.21 dB 6:10 03-'Heroes'
DR9 -0.74 dB -10.84 dB 3:19 04-Sons Of The Silent Age
DR9 -0.28 dB -10.85 dB 3:49 05-Blackout
DR9 -0.46 dB -11.16 dB 3:11 06-V-2 Schneider
DR9 -1.15 dB -15.07 dB 3:57 07-Sense Of Doubt
DR8 -1.19 dB -13.11 dB 5:05 08-Moss Garden
DR11 -1.17 dB -16.10 dB 4:35 09-Neukoln
DR9 -0.24 dB -11.65 dB 3:45 10-The Secret Life Of Arabia

Number of tracks: 10
Official DR value: DR9

Samplerate: 44100 Hz
Channels: 2
Bits per sample: 16
Bitrate: 849 kbps
Codec: FLAC

[CUETools log; Date: 20.10.2015 11:14:30; Version: 2.1.4]
[CTDB TOCID: 80upfDNxZpVMdKqA0ZqwouRQXew-] found.
Track | CTDB Status
1 | (16/17) Accurately ripped
2 | (17/17) Accurately ripped
3 | (17/17) Accurately ripped
4 | (17/17) Accurately ripped
5 | (17/17) Accurately ripped
6 | (17/17) Accurately ripped
7 | (16/17) Accurately ripped
8 | (17/17) Accurately ripped
9 | (17/17) Accurately ripped
10 | (17/17) Accurately ripped
[AccurateRip ID: 000f14ec-0079436a-8109840a] found.
Track [ CRC | V2 ] Status
01 [e43fe649|47281e32] (12+07/37) Accurately ripped
02 [1832c82d|97e57bdf] (12+07/37) Accurately ripped
03 [e1664566|c14d529a] (12+07/37) Accurately ripped
04 [97ce8e25|344fac31] (12+07/37) Accurately ripped
05 [2a565971|e917722f] (12+07/37) Accurately ripped
06 [dc4ff062|69c84e90] (12+07/37) Accurately ripped
07 [34b214a6|8dd18fdd] (12+07/37) Accurately ripped
08 [2221ddc9|5eca539b] (12+07/37) Accurately ripped
09 [3ad3c51a|eadd5e5a] (12+07/37) Accurately ripped
10 [c22c94e2|b52797af] (12+07/37) Accurately ripped
Offsetted by -1453:
01 [07a21ae9] (02/37) Accurately ripped
02 [cdb9e448] (02/37) Accurately ripped
03 [0228b306] (02/37) Accurately ripped
04 [86324921] (02/37) Accurately ripped
05 [18e48260] (02/37) Accurately ripped
06 [44285102] (02/37) Accurately ripped
07 [d7ea47af] (02/37) Accurately ripped
08 [0b405a83] (02/37) Accurately ripped
09 [86c247aa] (02/37) Accurately ripped
10 [6f7ad6d2] (02/37) Accurately ripped
Offsetted by -186:
01 [769c1b89] (04/37) Accurately ripped
02 [d0d2ca03] (04/37) Accurately ripped
03 [353acca6] (04/37) Accurately ripped
04 [38e0c89d] (04/37) Accurately ripped
05 [2956666f] (04/37) Accurately ripped
06 [da46fda2] (04/37) Accurately ripped
07 [f4937884] (04/37) Accurately ripped
08 [6dd1a17a] (04/37) Accurately ripped
09 [a3470971] (04/37) Accurately ripped
10 [78836ac2] (04/37) Accurately ripped
Offsetted by 701:
01 [0dd95fa9] (02/37) Accurately ripped
02 [7be842a2] (02/37) Accurately ripped
03 [9a72b5c6] (02/37) Accurately ripped
04 [2c5f3069] (02/37) Accurately ripped
05 [a05788d2] (02/37) Accurately ripped
06 [7cc17dc2] (02/37) Accurately ripped
07 [181ec1a1] (02/37) Accurately ripped
08 [28956f25] (02/37) Accurately ripped
09 [81d703e0] (02/37) Accurately ripped
10 c42e7f2 (02/37) Accurately ripped

Track Peak [ CRC32 ] [W/O NULL] [ LOG ]
-- 97,2 [345FE795] [CD3F611D] CRC32
01 95,4 [7585C7BE] [2D2FA48A]
02 91,7 [0C13E2B3] [26E92353]
03 92,2 [C8931F86] [57D80D90]
04 91,7 [6ADE760F] [3667E50F]
05 96,8 [F925CD9D] [F9D03CBB]
06 94,8 [D13DD7D6] [8624D501]
07 87,6 [FD617B08] [A0369194]
08 87,1 [4BEE4A7E] [6205D47E]
09 87,3 [425D4798] [D84E2365]
10 97,2 [EEA6A7A6] [F1FD0959]

http://i67.fastpic.ru/big/2015/1022/9a/037663b8d6225d05398525aa616a229a.jpg

DOWNLOAD LINKS:
Buy Premium To Support Me & Get Resumable Support & Max Speed


Links are Interchangeable - No Password - Single Extraction

 
 
 
Dear visitor, you went to the site as an unregistered user. We encourage you to register or enter the site under your name.
 
   
 
 (Votes #: 0)