2013Zone For Latest Downloads

 
     
 
Legal Downloads » TV Shows » History Channel - Story of the Fighting I: The USS Intrepid (1995)
Menu
Home Applications
Games Movies
Music TV Shows
Torrents Graphics

Sitemap

RSS
 
Advanced Search
Last News
Site Info
Top Contributors:
  1    supper88 32766
  2    admin 32671
  3    Whisky 10080
  4    Shark_ 8911
  5    creativelivenew 8706
  6    whathesupa 2799
  7    candymypost 840
  8    hvnteam 629
  9    vuong87 3


Articles:
  This Hour: 0
  Today: 0
  This Month: 58
  All Time: 515616


Torrents:
  Today: 0
  Yesterday: 0
  All Time: 156702


Membership:
  Registered Today :0
  This Hour:0
  This Month:0
  Total:14
  Banned:1

{online}
{inform_torrent}
Friend:
We Recomend
Trend
Trend
Ad1

Search In Site

TV Shows : History Channel - Story of the Fighting I: The USS Intrepid (1995)
 
http://i59.fastpic.ru/big/2015/1022/18/ad77fcca9f836866fdef2920d6402c18.jpg

History Channel - Story of the Fighting I: The USS Intrepid (1995)
DVDrip | 720x544 | MKV/x264 @ 2244 Kbps | 41mn | Audio: English AC3 256 kbps, 2 channels | Subs: None | 745 MB
Genre: Documentary

Trace the invincible carrier of the U.S.S. Intrepid and the men who fought and died while battling on her decks. This documentary has never-before-seen footage of the Intrepid in action and includes first-hand accounts from aviators, astronauts, gunners, and officers, as well as commentary by General Colin Powell and U.S. Senator John McCain. It also features millionaire Zachary Fisher, the man who single-handedly saved the Intrepid from being turned into scrap, financing the venture to transform the ship into the world's largest naval museum. Seventeen storeys tall and three football fields long, the magnificent Intrepid was one of America's fiercest warships and saw a wide range of action -- from the WWII battle for the Leyte Gulf, to the deadly struggle in Vietnam, to the peacetime recovery of American space capsules.
Video
ID
: 0
Format : MPEG-4 Visual
Format profile : Advanced [email protected]
Format settings, BVOP : Yes
Format settings, QPel : No
Format settings, GMC : No warppoints
Format settings, Matrix : Default (MPEG)
Codec ID : DX50
Codec ID/Hint : DivX 5
Duration : 41mn 28s
Bit rate : 2 244 Kbps
Width : 720 pixels
Height : 544 pixels
Display aspect ratio : 4:3
Frame rate

: 29.970 fps
Color space

: YUV
Chroma subsampling : 4:2:0
Bit depth: 8 bits
Scan type: Progressive
Compression mode : Lossy
Bits/(Pixel*Frame) : 0.191
Stream size

: 666 MiB (89%)
Title : Video
Writing library : XviD 1.2.1 (UTC 2008-12-04)

Audio
ID
: 1
Format : AC-3
Format/Info

: Audio Coding 3
Mode extension : CM (complete main)
Codec ID : 2000
Duration : 41mn 28s
Bit rate mode : Constant
Bit rate : 256 Kbps
Channel(s)

: 2 channels
Channel positions : Front: L R
Sampling rate : 48.0 KHz
Bit depth: 16 bits
Compression mode : Lossy
Stream size

: 75.9 MiB (10%)
Alignment: Split accross interleaves
Interleave, duration : 33 ms (1.00 video frame)
Interleave, preload duration : 500 ms
Title : Audio

http://i66.fastpic.ru/big/2015/1022/eb/62feadf58ecf3d0a564d01939fa6d4eb.jpg


DOWNLOAD LINKS:
Buy Premium To Support Me & Get Resumable Support & Max Speed


Links are Interchangeable - No Password - Single Extraction

History Channel - Story of the Fighting I: The USS Intrepid (1995) Fast Download


Ad2

 
 
 
Dear visitor, you went to the site as an unregistered user. We encourage you to register or enter the site under your name.
 
   
 
 (Votes #: 0)