2013Zone For Latest Downloads

 
     
 
Legal Downloads » TV Shows » National Geographic - World's Biggest Beasts (2015)
Menu
Home Applications
Games Movies
Music TV Shows
Torrents Graphics

Sitemap

RSS
 
Advanced Search
Last News
Site Info
Top Contributors:
  1    supper88 32766
  2    admin 32691
  3    Whisky 10080
  4    Shark_ 8911
  5    creativelivenew 8706
  6    whathesupa 2799
  7    candymypost 840
  8    hvnteam 629
  9    vuong87 3


Articles:
  This Hour: 0
  Today: 0
  This Month: 38
  All Time: 515597


Torrents:
  Today: 0
  Yesterday: 0
  All Time: 156683


Membership:
  Registered Today :0
  This Hour:0
  This Month:0
  Total:14
  Banned:1

{online}
{inform_torrent}
Friend:
We Recomend
Trend
Trend
Ad1

Search In Site

TV Shows : National Geographic - World's Biggest Beasts (2015)
 

http://i65.fastpic.ru/big/2015/1022/f6/d53bcc3de0bb36768d8ea5d0569950f6.jpg
National Geographic - World's Biggest Beasts (2015)
HDTV | 1280x720 | .MKV/AVC @ 2747 Kbps | 1h 27mn | Audio: English AC3 384 kbps, 6 channels | Subs: None | 1.94 GiB
Genre: Documentary

"Count down the biggest beasts to ever roam the planet and uncover the secret lives of these supersized species in this eye-opening special."

General
Unique ID
: 260919250071792920722688736754132030221 (0xC44B383CD1CE473E79D3EC2ADCD3930D)
Complete name : nat.geo.worlds.biggest.beasts.mkv
Format
: Matroska
Format version : Version 4 / Version 2
File size
: 1.94 GiB
Duration
: 1h 27mn
Overall bit rate : 3 194 Kbps

Video
ID : 1
Format
: AVC
Format/Info
: Advanced Video Codec
Format profile : [email protected]
Format settings, CABAC : Yes
Format settings, ReFrames : 5 frames
Codec ID
: V_MPEG4/ISO/AVC
Duration
: 1h 27mn
Bit rate
: 2 747 Kbps
Width
: 1 280 pixels
Height
: 720 pixels
Display aspect ratio : 16:9
Frame rate mode : Constant
Frame rate
: 25.000 fps
Color space
: YUV
Chroma subsampling

: 4:2:0
Bit depth
: 8 bits
Scan type
: Progressive
Bits/(Pixel*Frame)

: 0.119
Stream size
: 1.67 GiB (86%)
Writing library : x264 core 148 r2638 7599210
Encoding settings: cabac=1 / ref=5 / deblock=1:0:0 / analyse=0x3:0x113 / me=umh / subme=9 / psy=1 / psy_rd=1.00:0.00 / mixed_ref=1 / me_range=16 / chroma_me=1 / trellis=1 / 8x8dct=1 / cqm=0 / deadzone=21,11 / fast_pskip=0 / chroma_qp_offset=-2 / threads=12 / lookahead_threads=1 / sliced_threads=0 / nr=0 / decimate=1 / interlaced=0 / bluray_compat=0 / constrained_intra=0 / bframes=3 / b_pyramid=2 / b_adapt=2 / b_bias=0 / direct=3 / weightb=1 / open_gop=0 / weightp=2 / keyint=250 / keyint_min=25 / scenecut=40 / intra_refresh=0 / rc_lookahead=50 / rc=crf / mbtree=1 / crf=20.0 / qcomp=0.60 / qpmin=0 / qpmax=69 / qpstep=4 / ip_ratio=1.40 / aq=1:1.00
Language
: English
Default
: Yes
Forced
: No

Audio
ID : 2
Format
: AC-3
Format/Info
: Audio Coding 3
Mode extension : CM (complete main)
Format settings, Endianness : Big
Codec ID
: A_AC3
Duration
: 1h 27mn
Bit rate mode : Constant
Bit rate
: 384 Kbps
Channel(s)
: 6 channels
Channel positions: Front: L C R, Side: L R, LFE
Sampling rate : 48.0 KHz
Compression mode : Lossy
Stream size
: 239 MiB (12%)
Default
: Yes
Forced
: No

Screenshots:

http://i60.fastpic.ru/big/2015/1022/bc/5e80db2b80e3f5378767c442bf15c9bc.jpg

http://i65.fastpic.ru/big/2015/1022/f0/359e1b713f50f75d9f2a0ff56bc21df0.jpg

http://i59.fastpic.ru/big/2015/1022/6f/f37567c68e5b5421226d089e6b40de6f.jpg


DOWNLOAD LINKS:
Buy Premium To Support Me & Get Resumable Support & Max Speed


Links are Interchangeable - No Password - Single Extraction

National Geographic - World's Biggest Beasts (2015) Fast Download


Ad2

 
 
 
Dear visitor, you went to the site as an unregistered user. We encourage you to register or enter the site under your name.
 
   
 
 (Votes #: 0)