2013Zone For Latest Downloads

 
     
 
Legal Downloads » Music » Wayne Escoffery - Uptown (2009) {Posi-Tone}
Menu
Home Applications
Games Movies
Music TV Shows
Torrents Graphics

Sitemap

RSS
 
Advanced Search
Last News
Site Info
Top Contributors:
  1    supper88 32766
  2    admin 32671
  3    Whisky 10080
  4    Shark_ 8911
  5    creativelivenew 8706
  6    whathesupa 2799
  7    candymypost 840
  8    hvnteam 629
  9    vuong87 3


Articles:
  This Hour: 0
  Today: 0
  This Month: 59
  All Time: 515636


Torrents:
  Today: 0
  Yesterday: 0
  All Time: 156702


Membership:
  Registered Today :0
  This Hour:0
  This Month:0
  Total:14
  Banned:1

{online}
{inform_torrent}
Friend:
We Recomend
Trend
Trend

Search In Site

Music : Wayne Escoffery - Uptown (2009) {Posi-Tone}
 
http://i66.fastpic.ru/big/2015/1022/34/d5e4c0dc14a63b57ea15b4cdc699b834.jpg

Wayne Escoffery - Uptown (2009) {Posi-Tone}
X Lossless Decoder | FLAC tracks | Cue+Log+M3U | Full Scans 600dpi | 310MB + 5% Recovery
Genre: Jazz, Post Bop

"London, England-born saxophonist Wayne Escoffery's fifth album is a soulful, groove-heavy outing that positions him firmly within the tradition of hard bop blowing but also makes a case for him as a better-than-decent composer. There's a Wayne Shorter-esque feel to melodies like the opening "No Desert" and the questing "Maya's Waltz," while the minute-long organ interlude, "Road from Eilat" and the track it leads into, "Gulf of Aqaba," add a psychedelic, spiritual edge reminiscent of Larry Young's mid-'60s Blue Note albums."

Track List
01. No Desert 5:33
02. I Got It Bad 6:07
03. Cross Bronx 5:33
04. You Know I Care 5:26
05. Road From Eilat 1:04
06. Gulf Of Aqaba 5:55
07. Nu Soul 4:41
08. Maya's Waltz 8:44
09. Easy Now 2:14

musicians
Wayne Escoffery - saxophones
Avi Rothbard - guitar
Gary Versace - organ
Jason Brown - drums

Produced by Marc Free

X Lossless Decoder version 20111015 (136.4)

XLD extraction logfile from 2011-11-01 21:56:31 +0300

Wayne Escoffery / Uptown

Used drive : HL-DT-ST DVDRW GS23N (revision SB00)

Ripper mode : CDParanoia III 10.2
Disable audio cache : OK for the drive with a cache less than 2750KiB
Make use of C2 pointers : NO
Read offset correction : 667
Max retry count : 10
Gap status : Analyzed, Appended

TOC of the extracted CD
Track | Start | Length | Start sector | End sector
--1 | 00:00:00 | 05:33:35 | 0 | 25009 2 | 05:33:35 | 06:07:12 | 25010 | 52546 3 | 11:40:47 | 05:33:74 | 52547 | 77595 4 | 17:14:46 | 05:26:02 | 77596 | 102047 5 | 22:40:48 | 01:04:08 | 102048 | 106855 6 | 23:44:56 | 05:55:26 | 106856 | 133506 7 | 29:40:07 | 04:41:68 | 133507 | 154649 8 | 34:22:00 | 08:44:62 | 154650 | 194011 9 | 43:06:62 | 02:14:09 | 194012 | 204070

AccurateRip Summary
Disc not found in AccurateRip DB.

All Tracks
Album gain : -7.23 dB
Peak : 1.000000
StatisticsRead error : 0Skipped (treated as error) : 0Edge jitter error (maybe fixed) : 0Atom jitter error (maybe fixed) : 0Drift error (maybe fixed) : 0Dropped bytes error (maybe fixed) : 0Duplicated bytes error (maybe fixed) : 0

Track 01
Filename : /Users/olegbelov/Downloads/Wayne Escoffery - Uptown (2009)/01 - No Desert.flac
Pre-gap length : 00:02:00 Track gain : -7.49 dB
Peak : 1.000000
CRC32 hash (test run) : 871F84B4
CRC32 hash : 871F84B4
CRC32 hash (skip zero) : 253F26F1
AccurateRip signature : F48C93E0->Track not present in AccurateRip database.
StatisticsRead error : 0Skipped (treated as error) : 0Edge jitter error (maybe fixed) : 0Atom jitter error (maybe fixed) : 0Drift error (maybe fixed) : 0Dropped bytes error (maybe fixed) : 0Duplicated bytes error (maybe fixed) : 0Inconsistency in error sectors : 0

Track 02
Filename : /Users/olegbelov/Downloads/Wayne Escoffery - Uptown (2009)/02 - I Got It Bad.flac Track gain : -7.56 dB
Peak : 0.999268
CRC32 hash (test run) : B19EDA3F
CRC32 hash : B19EDA3F
CRC32 hash (skip zero) : 28F7633D
AccurateRip signature : 16BEE5E5->Track not present in AccurateRip database.
StatisticsRead error : 0Skipped (treated as error) : 0Edge jitter error (maybe fixed) : 0Atom jitter error (maybe fixed) : 0Drift error (maybe fixed) : 0Dropped bytes error (maybe fixed) : 0Duplicated bytes error (maybe fixed) : 0Inconsistency in error sectors : 0

Track 03
Filename : /Users/olegbelov/Downloads/Wayne Escoffery - Uptown (2009)/03 - Cross Bronx.flac Track gain : -7.58 dB
Peak : 1.000000
CRC32 hash (test run) : C72C9F83
CRC32 hash : C72C9F83
CRC32 hash (skip zero) : FF14A18A
AccurateRip signature : FC38B041->Track not present in AccurateRip database.
StatisticsRead error : 0Skipped (treated as error) : 0Edge jitter error (maybe fixed) : 0Atom jitter error (maybe fixed) : 0Drift error (maybe fixed) : 0Dropped bytes error (maybe fixed) : 0Duplicated bytes error (maybe fixed) : 0Inconsistency in error sectors : 0

Track 04
Filename : /Users/olegbelov/Downloads/Wayne Escoffery - Uptown (2009)/04 - You Know I Care.flac Track gain : -5.73 dB
Peak : 0.975922
CRC32 hash (test run) : 553A4BAC
CRC32 hash : 553A4BAC
CRC32 hash (skip zero) : D0F262F9
AccurateRip signature : 67EA1E81->Track not present in AccurateRip database.
StatisticsRead error : 0Skipped (treated as error) : 0Edge jitter error (maybe fixed) : 0Atom jitter error (maybe fixed) : 0Drift error (maybe fixed) : 0Dropped bytes error (maybe fixed) : 0Duplicated bytes error (maybe fixed) : 0Inconsistency in error sectors : 0

Track 05
Filename : /Users/olegbelov/Downloads/Wayne Escoffery - Uptown (2009)/05 - Road From Eilat.flac Track gain : -5.10 dB
Peak : 0.970551
CRC32 hash (test run) : 137D3C89
CRC32 hash : 137D3C89
CRC32 hash (skip zero) : 83D37ABA
AccurateRip signature : 12E12D3A->Track not present in AccurateRip database.
StatisticsRead error : 0Skipped (treated as error) : 0Edge jitter error (maybe fixed) : 0Atom jitter error (maybe fixed) : 0Drift error (maybe fixed) : 0Dropped bytes error (maybe fixed) : 0Duplicated bytes error (maybe fixed) : 0Inconsistency in error sectors : 0

Track 06
Filename : /Users/olegbelov/Downloads/Wayne Escoffery - Uptown (2009)/06 - Gulf Of Aqaba.flac Track gain : -7.01 dB
Peak : 1.000000
CRC32 hash (test run) : 46E738F8
CRC32 hash : 46E738F8
CRC32 hash (skip zero) : 3E596810
AccurateRip signature : 1DBB40F3->Track not present in AccurateRip database.
StatisticsRead error : 0Skipped (treated as error) : 0Edge jitter error (maybe fixed) : 0Atom jitter error (maybe fixed) : 0Drift error (maybe fixed) : 0Dropped bytes error (maybe fixed) : 0Duplicated bytes error (maybe fixed) : 0Inconsistency in error sectors : 0

Track 07
Filename : /Users/olegbelov/Downloads/Wayne Escoffery - Uptown (2009)/07 - Nu Soul.flac Track gain : -7.43 dB
Peak : 0.987610
CRC32 hash (test run) : 60DB7E14
CRC32 hash : 60DB7E14
CRC32 hash (skip zero) : A7268FB2
AccurateRip signature : 274F9316->Track not present in AccurateRip database.
StatisticsRead error : 0Skipped (treated as error) : 0Edge jitter error (maybe fixed) : 0Atom jitter error (maybe fixed) : 0Drift error (maybe fixed) : 0Dropped bytes error (maybe fixed) : 0Duplicated bytes error (maybe fixed) : 0Inconsistency in error sectors : 0

Track 08
Filename : /Users/olegbelov/Downloads/Wayne Escoffery - Uptown (2009)/08 - Maya's Waltz.flac Track gain : -7.08 dB
Peak : 1.000000
CRC32 hash (test run) : C144A89C
CRC32 hash : C144A89C
CRC32 hash (skip zero) : F9FBD1B8
AccurateRip signature : 93CFF209->Track not present in AccurateRip database.
StatisticsRead error : 0Skipped (treated as error) : 0Edge jitter error (maybe fixed) : 0Atom jitter error (maybe fixed) : 0Drift error (maybe fixed) : 0Dropped bytes error (maybe fixed) : 0Duplicated bytes error (maybe fixed) : 0Inconsistency in error sectors : 0

Track 09
Filename : /Users/olegbelov/Downloads/Wayne Escoffery - Uptown (2009)/09 - Easy Now.flac Track gain : -6.70 dB
Peak : 0.986053
CRC32 hash (test run) : 164B7140
CRC32 hash : 164B7140
CRC32 hash (skip zero) : 491CF95E
AccurateRip signature : 27B03394->Track not present in AccurateRip database.
StatisticsRead error : 0Skipped (treated as error) : 0Edge jitter error (maybe fixed) : 0Atom jitter error (maybe fixed) : 0Drift error (maybe fixed) : 0Dropped bytes error (maybe fixed) : 0Duplicated bytes error (maybe fixed) : 0Inconsistency in error sectors : 0

No errors occurred

End of status report

Analyzed: Wayne Escoffery / Uptown

DR Peak RMS Duration Track

DR8 0.00 dB -9.06 dB 5:33 01-No Desert
DR8 -0.01 dB -9.77 dB 6:07 02-I Got It Bad
DR9 0.00 dB -10.11 dB 5:34 03-Cross Bronx
DR11 -0.21 dB -13.11 dB 5:26 04-You Know I Care
DR11 -0.26 dB -13.57 dB 1:04 05-Road From Eilat
DR10 0.00 dB -11.39 dB 5:55 06-Gulf Of Aqaba
DR9 -0.11 dB -10.53 dB 4:42 07-Nu Soul
DR9 0.00 dB -10.15 dB 8:45 08-Maya's Waltz
DR10 -0.12 dB -12.39 dB 2:14 09-Easy Now

Number of tracks: 9
Official DR value: DR9

Samplerate: 44100 Hz
Channels: 2
Bits per sample: 16
Bitrate: 813 kbps
Codec: FLAC

http://i66.fastpic.ru/big/2015/1022/51/4155ede76c2cd3cc075cd859483af951.jpg

http://i66.fastpic.ru/big/2015/1022/79/97515001f96c1b3dfb1debf10216d579.jpg

Rip by funky_cat


DOWNLOAD LINKS:
Buy Premium To Support Me & Get Resumable Support & Max Speed


Links are Interchangeable - No Password - Single Extraction

 
 
 
Dear visitor, you went to the site as an unregistered user. We encourage you to register or enter the site under your name.
 
   
 
 (Votes #: 0)