2013Zone For Latest Downloads

 
     
 
Legal Downloads » Music » Leaether Strip - Yes - I'm Limited Vol. II (1997)
Menu
Home Applications
Games Movies
Music TV Shows
Torrents Graphics

Sitemap

RSS
 
Advanced Search
Last News
Site Info
Top Contributors:
  1    supper88 32766
  2    admin 32691
  3    Whisky 10080
  4    Shark_ 8911
  5    creativelivenew 8706
  6    whathesupa 2799
  7    candymypost 840
  8    hvnteam 629
  9    vuong87 3


Articles:
  This Hour: 0
  Today: 0
  This Month: 38
  All Time: 515597


Torrents:
  Today: 0
  Yesterday: 0
  All Time: 156683


Membership:
  Registered Today :0
  This Hour:0
  This Month:0
  Total:14
  Banned:1

{online}
{inform_torrent}
Friend:
We Recomend
Trend
Trend
Ad1

Search In Site

Music : Leaether Strip - Yes - I'm Limited Vol. II (1997)
 
http://i65.fastpic.ru/big/2015/1022/b2/10d98f76adcf96930ee208f959b4a7b2.jpg

Leaether Strip - Yes - I'm Limited Vol. II (1997)
Electronic | 1cd | EAC Rip | Flac + Cue + Log | covers
Zoth Ommog, CD ZOT 169 | rel: 1997 | 460Mb

This is one of those remix albums where almost all of the mixes are better than the original versions. That does not really come as a surprise when you look at the list of remixers: Among others, Apoptygma Berzerk (who deliver, as always, the very best version), Funker Vogt, In Strict Confidence, and Lights of Euphoria - all bands that are not only known for their great music, but also for a hell of a lot of brilliant remixes.
If you're a Leather Strip fan, you gotta get this album anyway, but you even might enjoy it if you're not into Claus Larsen's work, because most of the songs are turned into electro-dancefloor-songs that range from very technoid to rather old-school EBM beats. ~Amazon

Track listing
01. How Do I Know (Apoptygma Berzerk Remix) (5:13)
02. Lies To Tell (Second Disease Remix) (5:27)
03. How Do I Know (Funker Vogt Remix) (5:09)
04. Life Is Painful (Bastard) (In Strict Confidence Remix) (4:25)
05. Lies To Tell (Lights of Euphoria Remix) (4:52)
06. How Do I Know (Controlled Fusion Remix V1.0) (6:00)
07. You Know Where To Put It (Controlled Fusion Remix) (7:20)
08. How Do I Know (Fall Out Remix) (5:17)
09. You Know Where To Put It (Collapsed System Remix) (5:16)
10. Life Is Painfull (Bastard) (Trylok Remix) (5:44)
11. How Do I Know (Controlled Fusion Remix V2.0) (7:52)
~ (62:35)

Exact Audio Copy V1.0 beta 2 from 29. April 2011

EAC extraction logfile from 24. August 2015, 23:42

LEATHER STRIP / Yes I'm Limited Vol. II

Used drive : HL-DT-STDVDRAM GH22LS50 Adapter: 2 ID: 0

Read mode : Secure
Utilize accurate stream : Yes
Defeat audio cache : Yes
Make use of C2 pointers : No

Read offset correction

: 667
Overread into Lead-In and Lead-Out : No
Fill up missing offset samples with silence : Yes
Delete leading and trailing silent blocks : No
Null samples used in CRC calculations : No
Used interface
: Native Win32 interface for Win NT & 2000
Gap handling
: Appended to previous track

Used output format : User Defined Encoder
Selected bitrate : 1024 kBit/s
Quality : High
Add ID3 tag : No
Command line compressor : C:\Program Files (x86)\Exact Audio Copy\Flac\flac.exe
Additional command line options : -1 -V -T "ARTIST=%artist%" -T "TITLE=%title%" -T "ALBUM=%albumtitle%" -T "DATE=%year%" -T "TRACKNUMBER=%tracknr%" -T "GENRE=%genre%" -T "COMMENT=%comment%" -T "BAND=%albuminterpret%" -T "COMPOSER=%composer%" %haslyrics%--ta

TOC of the extracted CD Track | Start | Length | Start sector | End sector
--1 | 0:01.00 | 5:13.17 | 75 | 23566 2 | 5:14.17 | 5:26.63 | 23567 | 48079 3 | 10:41.05 | 5:09.08 | 48080 | 71262 4 | 15:50.13 | 4:25.30 | 71263 | 91167 5 | 20:15.43 | 4:52.13 | 91168 | 113080 6 | 25:07.56 | 5:59.55 | 113081 | 140060 7 | 31:07.36 | 7:19.43 | 140061 | 173028 8 | 38:27.04 | 5:16.59 | 173029 | 196787 9 | 43:43.63 | 5:15.56 | 196788 | 220468
10 | 48:59.44 | 5:44.26 | 220469 | 246294
11 | 54:43.70 | 7:51.43 | 246295 | 281662

Track 1 Filename J:\LOSSLESS\EBM & DARK ELECTRO\LEATHER STRIP\LEATHER STRIP (1997) Yes I'm Limited Vol. II\01. How Do I Know (Apoptygma Berzerk Remix).wav Pre-gap length 0:00:03.00 Peak level 100.0 %
Extraction speed 1.0 X
Track quality 100.0 %
Test CRC D5CA18FD
Copy CRC D5CA18FD
Accurately ripped (confidence 2) [E4C6AEAD] (AR v1)
Copy OK

Track 2 Filename J:\LOSSLESS\EBM & DARK ELECTRO\LEATHER STRIP\LEATHER STRIP (1997) Yes I'm Limited Vol. II\02. Lies To Tell (Second Disease Remix).wav Pre-gap length 0:00:02.45 Peak level 99.5 %
Extraction speed 1.2 X
Track quality 100.0 %
Test CRC 71E7C3F8
Copy CRC 71E7C3F8
Accurately ripped (confidence 2) [74EAD229] (AR v1)
Copy OK

Track 3 Filename J:\LOSSLESS\EBM & DARK ELECTRO\LEATHER STRIP\LEATHER STRIP (1997) Yes I'm Limited Vol. II\03. How Do I Know (Funker Vogt Remix).wav Pre-gap length 0:00:02.45 Peak level 99.9 %
Extraction speed 1.2 X
Track quality 99.9 %
Test CRC 6079A683
Copy CRC 6079A683
Accurately ripped (confidence 2) [2A8EAC2D] (AR v1)
Copy OK

Track 4 Filename J:\LOSSLESS\EBM & DARK ELECTRO\LEATHER STRIP\LEATHER STRIP (1997) Yes I'm Limited Vol. II\04. Life Is Painful (Bastard) (In Strict Confidence Remix).wav Pre-gap length 0:00:02.45 Peak level 100.0 %
Extraction speed 1.4 X
Track quality 100.0 %
Test CRC FE34BF58
Copy CRC FE34BF58
Accurately ripped (confidence 2) [03BDE212] (AR v1)
Copy OK

Track 5 Filename J:\LOSSLESS\EBM & DARK ELECTRO\LEATHER STRIP\LEATHER STRIP (1997) Yes I'm Limited Vol. II\05. Lies To Tell (Lights of Euphoria Remix).wav Pre-gap length 0:00:02.45 Peak level 100.0 %
Extraction speed 1.4 X
Track quality 99.9 %
Test CRC 0117F979
Copy CRC 0117F979
Accurately ripped (confidence 2) [4603B3A6] (AR v1)
Copy OK

Track 6 Filename J:\LOSSLESS\EBM & DARK ELECTRO\LEATHER STRIP\LEATHER STRIP (1997) Yes I'm Limited Vol. II\06. How Do I Know (Controlled Fusion Remix V1.0).wav Pre-gap length 0:00:02.45 Peak level 99.8 %
Extraction speed 1.7 X
Track quality 100.0 %
Test CRC 0BC65C7B
Copy CRC 0BC65C7B
Accurately ripped (confidence 2) [0999B87D] (AR v1)
Copy OK

Track 7 Filename J:\LOSSLESS\EBM & DARK ELECTRO\LEATHER STRIP\LEATHER STRIP (1997) Yes I'm Limited Vol. II\07. You Know Where To Put It (Controlled Fusion Remix).wav Pre-gap length 0:00:02.45 Peak level 99.4 %
Extraction speed 1.7 X
Track quality 99.9 %
Test CRC 9BD1DBF7
Copy CRC 9BD1DBF7
Accurately ripped (confidence 2) [E9C15226] (AR v1)
Copy OK

Track 8 Filename J:\LOSSLESS\EBM & DARK ELECTRO\LEATHER STRIP\LEATHER STRIP (1997) Yes I'm Limited Vol. II\08. How Do I Know (Fall Out Remix).wav Pre-gap length 0:00:02.45 Peak level 100.0 %
Extraction speed 1.9 X
Track quality 100.0 %
Test CRC 17540425
Copy CRC 17540425
Accurately ripped (confidence 2) [092E121F] (AR v1)
Copy OK

Track 9 Filename J:\LOSSLESS\EBM & DARK ELECTRO\LEATHER STRIP\LEATHER STRIP (1997) Yes I'm Limited Vol. II\09. You Know Where To Put It (Collapsed System Remix).wav Pre-gap length 0:00:02.45 Peak level 92.3 %
Extraction speed 1.8 X
Track quality 99.9 %
Test CRC FA2F1F94
Copy CRC FA2F1F94
Accurately ripped (confidence 2) [0026A057] (AR v1)
Copy OK

Track 10 Filename J:\LOSSLESS\EBM & DARK ELECTRO\LEATHER STRIP\LEATHER STRIP (1997) Yes I'm Limited Vol. II\10. Life Is Painfull (Bastard) (Trylok Remix).wav Pre-gap length 0:00:02.45 Peak level 100.0 %
Extraction speed 2.1 X
Track quality 100.0 %
Test CRC 230A42C2
Copy CRC 230A42C2
Accurately ripped (confidence 2) [8071A5DA] (AR v1)
Copy OK

Track 11 Filename J:\LOSSLESS\EBM & DARK ELECTRO\LEATHER STRIP\LEATHER STRIP (1997) Yes I'm Limited Vol. II\11. How Do I Know (Controlled Fusion Remix V2.0).wav Pre-gap length 0:00:02.45 Peak level 100.0 %
Extraction speed 2.3 X
Track quality 100.0 %
Test CRC E2987D9D
Copy CRC E2987D9D
Accurately ripped (confidence 2) [E8295255] (AR v1)
Copy OK

All tracks accurately ripped

No errors occurred

End of status report

==== Log checksum BBFA686F35A9F74601807C976D82B8D604CF0F009DDDD1B1CDA7D42EF7C4C2D5 ====

[CUETools log; Date: 2015.10.19. 15:02:38; Version: 2.1.5]
Pregap length 00:01:00.
[CTDB TOCID: LnRoYcmS0leAGkaC0Xy_e5zf.kE-] found.
Track | CTDB Status
1 | (6/6) Accurately ripped
2 | (6/6) Accurately ripped
3 | (6/6) Accurately ripped
4 | (6/6) Accurately ripped
5 | (6/6) Accurately ripped
6 | (6/6) Accurately ripped
7 | (6/6) Accurately ripped
8 | (6/6) Accurately ripped
9 | (6/6) Accurately ripped
10 | (6/6) Accurately ripped
11 | (4/6) Accurately ripped
[AccurateRip ID: 00187fa3-00d63d95-9b0eaa0b] found.
Track [ CRC | V2 ] Status
01 [e4c6aead|a1106705] (02+00/20) Accurately ripped
02 [74ead229|70b589ec] (02+00/21) Accurately ripped
03 [2a8eac2d|fe287a22] (02+00/21) Accurately ripped
04 [03bde212|fdca592f] (02+00/21) Accurately ripped
05 [4603b3a6|12f1edf0] (02+00/21) Accurately ripped
06 [0999b87d|e4d70185] (02+00/21) Accurately ripped
07 [e9c15226|2a823142] (02+00/21) Accurately ripped
08 [092e121f|30ce4b38] (02+00/21) Accurately ripped
09 [0026a057|439da7aa] (02+00/21) Accurately ripped
10 [8071a5da|035e5560] (02+00/20) Accurately ripped
11 [e8295255|912f96ff] (02+00/20) Accurately ripped
Offsetted by -899:
01 [2f4a34da] (11/20) Accurately ripped
02 [dd2e5a2c] (11/21) Accurately ripped
03 [2daeb6e2] (11/21) Accurately ripped
04 [6c4ce122] (11/21) Accurately ripped
05 [fe0f067a] (11/21) Accurately ripped
06 [c8f1a0f5] (11/21) Accurately ripped
07 [444be4d2] (11/21) Accurately ripped
08 [36a1cb69] (11/21) Accurately ripped
09 [623bd28d] (11/21) Accurately ripped
10 [d554348d] (11/20) Accurately ripped
11 [a154ef10] (11/20) Accurately ripped

Track Peak [ CRC32 ] [W/O NULL] [ LOG ]
-- 100,0 [70813EB4] [12B011FB]
01 100,0 [51956568] [D5CA18FD] W/O NULL
02 99,5 [E376E897] [71E7C3F8] W/O NULL
03 99,9 [3E829C1C] [6079A683] W/O NULL
04 100,0 [C4584901] [FE34BF58] W/O NULL
05 100,0 [0CFC1E43] [0117F979] W/O NULL
06 99,8 [045D8C83] [0BC65C7B] W/O NULL
07 99,4 [9D38D397] [9BD1DBF7] W/O NULL
08 100,0 [A83F2285] [17540425] W/O NULL
09 92,3 0EEDC3B [FA2F1F94] W/O NULL
10 100,0 [8FC834F9] [230A42C2] W/O NULL
11 100,0 [C8927C6F] [E2987D9D] W/O NULL

Thx to k-forest
password: asd
DOWNLOAD LINKS:
Buy Premium To Support Me & Get Resumable Support & Max Speed


Links are Interchangeable - No Password - Single Extraction

Leaether Strip - Yes - I'm Limited Vol. II (1997) Fast Download


Ad2

 
 
 
Dear visitor, you went to the site as an unregistered user. We encourage you to register or enter the site under your name.
 
   
 
 (Votes #: 0)