2013Zone For Latest Downloads

 
     
 
Legal Downloads » Music » Katrina & The Waves - Walking On Sunshine: The Greatest Hits Of Katrina & The Waves (1997)
Menu
Home Applications
Games Movies
Music TV Shows
Torrents Graphics

Sitemap

RSS
 
Advanced Search
Last News
Site Info
Top Contributors:
  1    supper88 32766
  2    admin 32711
  3    Whisky 10080
  4    Shark_ 8911
  5    creativelivenew 8706
  6    whathesupa 2799
  7    candymypost 840
  8    hvnteam 629
  9    vuong87 3


Articles:
  This Hour: 20
  Today: 20
  This Month: 20
  All Time: 515521


Torrents:
  Today: 0
  Yesterday: 0
  All Time: 156676


Membership:
  Registered Today :0
  This Hour:0
  This Month:0
  Total:14
  Banned:1

{online}
{inform_torrent}
Friend:
Full Download Scripts
Torrent Download
Trend
Trend

Search In Site

Music : Katrina & The Waves - Walking On Sunshine: The Greatest Hits Of Katrina & The Waves (1997)
 
http://i65.fastpic.ru/big/2015/1022/bd/851ab42a6df08a860e5ce38f2a9a5ebd.jpg

Katrina & The Waves - Walking On Sunshine: The Greatest Hits Of Katrina & The Waves (1997)
EAC | FLAC | Tracks (Cue&Log) ~ 531 Mb (incl 5%) | Mp3 (CBR320) ~ 217 Mb (incl 5%) | Scans included
Genre: Rock, Pop Rock, New Wave | Label: EMI | # CDEMC 3766, 7243 8 57464 2 0 | Time: 01:10:04

"The only real problem with One Way Records' anthology on Katrina & the Waves is that it gives too much room to their first Capitol album (which ought to be out as a free-standing CD) and not enough to their later material. Anyone seeking to go further should track down this imported disc. Thanks to EMI's acquisition of the SBK label, for which the band recorded in 1989, and its merger with Virgin Records, for which the Waves recorded in the early '90s in Germany, this collection has a little range and depth, although it's still just a greatest-hits collection -- if it were a best-of, it would also have to include some of their Attic Records sides from before their signing to Capitol. In addition to the eight songs off of the first Capitol album, there are four more off of Waves, including "Lovely Lindsey" (the one glaring gap in the One Way release)."



Tracklist:

01. Walking On Sunshine (03:59)
02. Red Wine And Whiskey (03:44)
03. Do You Want Crying (03:29)
04. Que Te Quiero (03:21)
05. Going Down To Liverpool (04:29)
06. Machine Gun Smith (03:04)
07. Mexico (03:17)
08. The Game Of Love (03:17)
09. Is That It? (03:41)
10. Tears For Me (03:04)
11. Sun Street (03:13)
12. Lovely Lindsey (04:43)
13. I Can Dream About It (04:00)
14. That's The Way (03:56)
15. Rock 'N' Roll Girl (04:05)
16. (I've Got A) Crush On You (03:53)
17. Rock Myself To Sleep (03:05)
18. Tears Of A Woman (03:57)
19. I Really Taught Me To Watusi (03:36)


Exact Audio Copy V1.0 beta 3 from 29. August 2011

EAC extraction logfile from 9. January 2015, 0:22

Katrina & The Waves / Walking On Sunshine - The Greatest Hits Of (1997)

Used drive : Optiarc DVD RW AD-7280S Adapter: 3 ID: 0

Read mode : Secure
Utilize accurate stream : Yes
Defeat audio cache : Yes
Make use of C2 pointers : No

Read offset correction

: 48
Overread into Lead-In and Lead-Out : No
Fill up missing offset samples with silence : Yes
Delete leading and trailing silent blocks : No
Null samples used in CRC calculations : Yes
Used interface
: Native Win32 interface for Win NT & 2000
Gap handling
: Appended to previous track

Used output format : User Defined Encoder
Selected bitrate : 768 kBit/s
Quality : High
Add ID3 tag : No
Command line compressor : C:\Program Files\Exact Audio Copy\Flac\flac.exe
Additional command line options : -V -8 -T "Genre=%genre%" -T "Artist=%artist%" -T "Title=%title%" -T "Album=%albumtitle%" -T "Date=%year%" -T "Tracknumber=%tracknr%" -T "Comment=%comment%" %source%

TOC of the extracted CD Track | Start | Length | Start sector | End sector
--1 | 0:00.00 | 3:59.37 | 0 | 17961 2 | 3:59.37 | 3:44.20 | 17962 | 34781 3 | 7:43.57 | 3:29.53 | 34782 | 50509 4 | 11:13.35 | 3:21.32 | 50510 | 65616 5 | 14:34.67 | 4:29.70 | 65617 | 85861 6 | 19:04.62 | 3:04.38 | 85862 | 99699 7 | 22:09.25 | 3:17.70 | 99700 | 114544 8 | 25:27.20 | 3:17.52 | 114545 | 129371 9 | 28:44.72 | 3:41.68 | 129372 | 146014
10 | 32:26.65 | 3:04.42 | 146015 | 159856
11 | 35:31.32 | 3:13.30 | 159857 | 174361
12 | 38:44.62 | 4:43.38 | 174362 | 195624
13 | 43:28.25 | 4:00.55 | 195625 | 213679
14 | 47:29.05 | 3:56.47 | 213680 | 231426
15 | 51:25.52 | 4:05.00 | 231427 | 249801
16 | 55:30.52 | 3:53.45 | 249802 | 267321
17 | 59:24.22 | 3:05.55 | 267322 | 281251
18 | 62:30.02 | 3:57.05 | 281252 | 299031
19 | 66:27.07 | 3:36.38 | 299032 | 315269

Track 1 Filename D:\CD\Katrina & The Waves - Walking On Sunshine - The Greatest Hits Of (1997)\01. Walking On Sunshine.wav Pre-gap length 0:00:02.00 Peak level 99.4 %
Extraction speed 2.4 X
Track quality 100.0 %
Test CRC 30659DA4
Copy CRC 30659DA4
Accurately ripped (confidence 32) [6DE666D0] (AR v2)
Copy OK

Track 2 Filename D:\CD\Katrina & The Waves - Walking On Sunshine - The Greatest Hits Of (1997)\02. Red Wine And Whiskey.wav Pre-gap length 0:00:00.32 Peak level 98.8 %
Extraction speed 2.6 X
Track quality 100.0 %
Test CRC 65E86EF8
Copy CRC 65E86EF8
Accurately ripped (confidence 32) [793F7CFA] (AR v2)
Copy OK

Track 3 Filename D:\CD\Katrina & The Waves - Walking On Sunshine - The Greatest Hits Of (1997)\03. Do You Want Crying.wav Pre-gap length 0:00:00.40 Peak level 99.4 %
Extraction speed 2.8 X
Track quality 100.0 %
Test CRC C8955F01
Copy CRC C8955F01
Accurately ripped (confidence 31) [368F33CB] (AR v2)
Copy OK

Track 4 Filename D:\CD\Katrina & The Waves - Walking On Sunshine - The Greatest Hits Of (1997)\04. Que Te Quiero.wav Pre-gap length 0:00:00.35 Peak level 99.4 %
Extraction speed 3.0 X
Track quality 100.0 %
Test CRC 83039AAF
Copy CRC 83039AAF
Accurately ripped (confidence 31) [D54E469E] (AR v2)
Copy OK

Track 5 Filename D:\CD\Katrina & The Waves - Walking On Sunshine - The Greatest Hits Of (1997)\05. Going Down To Liverpool.wav Pre-gap length 0:00:00.60 Peak level 98.6 %
Extraction speed 3.0 X
Track quality 99.9 %
Test CRC D965274C
Copy CRC D965274C
Accurately ripped (confidence 31) [2524FC1F] (AR v2)
Copy OK

Track 6 Filename D:\CD\Katrina & The Waves - Walking On Sunshine - The Greatest Hits Of (1997)\06. Machine Gun Smith.wav Pre-gap length 0:00:00.30 Peak level 99.4 %
Extraction speed 3.3 X
Track quality 100.0 %
Test CRC 8CDA56AE
Copy CRC 8CDA56AE
Accurately ripped (confidence 31) [0BFFD475] (AR v2)
Copy OK

Track 7 Filename D:\CD\Katrina & The Waves - Walking On Sunshine - The Greatest Hits Of (1997)\07. Mexico.wav Pre-gap length 0:00:00.33 Peak level 96.4 %
Extraction speed 3.5 X
Track quality 100.0 %
Test CRC E031EDD0
Copy CRC E031EDD0
Accurately ripped (confidence 31) [C219F043] (AR v2)
Copy OK

Track 8 Filename D:\CD\Katrina & The Waves - Walking On Sunshine - The Greatest Hits Of (1997)\08. The Game Of Love.wav Pre-gap length 0:00:01.16 Peak level 99.4 %
Extraction speed 3.7 X
Track quality 100.0 %
Test CRC 41ED1E2D
Copy CRC 41ED1E2D
Accurately ripped (confidence 30) [1130FEB2] (AR v2)
Copy OK

Track 9 Filename D:\CD\Katrina & The Waves - Walking On Sunshine - The Greatest Hits Of (1997)\09. Is That It.wav Pre-gap length 0:00:00.60 Peak level 99.4 %
Extraction speed 3.8 X
Track quality 100.0 %
Test CRC 83CA1C35
Copy CRC 83CA1C35
Accurately ripped (confidence 30) [ABFE068B] (AR v2)
Copy OK

Track 10 Filename D:\CD\Katrina & The Waves - Walking On Sunshine - The Greatest Hits Of (1997)\10. Tears For Me.wav Pre-gap length 0:00:01.13 Peak level 91.8 %
Extraction speed 3.4 X
Track quality 99.9 %
Test CRC 3AF6C7AE
Copy CRC 3AF6C7AE
Accurately ripped (confidence 30) [A08C8701] (AR v2)
Copy OK

Track 11 Filename D:\CD\Katrina & The Waves - Walking On Sunshine - The Greatest Hits Of (1997)\11. Sun Street.wav Pre-gap length 0:00:01.32 Peak level 98.9 %
Extraction speed 4.0 X
Track quality 100.0 %
Test CRC 256EEE76
Copy CRC 256EEE76
Accurately ripped (confidence 30) [FFE4D61D] (AR v2)
Copy OK

Track 12 Filename D:\CD\Katrina & The Waves - Walking On Sunshine - The Greatest Hits Of (1997)\12. Lovely Lindsey.wav Pre-gap length 0:00:01.07 Peak level 99.4 %
Extraction speed 4.0 X
Track quality 99.9 %
Test CRC 0B6AA803
Copy CRC 0B6AA803
Accurately ripped (confidence 29) [C4D1C812] (AR v2)
Copy OK

Track 13 Filename D:\CD\Katrina & The Waves - Walking On Sunshine - The Greatest Hits Of (1997)\13. I Can Dream About It.wav Pre-gap length 0:00:01.70 Peak level 88.0 %
Extraction speed 4.5 X
Track quality 100.0 %
Test CRC 9B51D240
Copy CRC 9B51D240
Accurately ripped (confidence 30) [457964D3] (AR v2)
Copy OK

Track 14 Filename D:\CD\Katrina & The Waves - Walking On Sunshine - The Greatest Hits Of (1997)\14. That's The Way.wav Pre-gap length 0:00:01.30 Peak level 86.1 %
Extraction speed 4.6 X
Track quality 100.0 %
Test CRC 53E379B8
Copy CRC 53E379B8
Accurately ripped (confidence 29) [6CC8B747] (AR v2)
Copy OK

Track 15 Filename D:\CD\Katrina & The Waves - Walking On Sunshine - The Greatest Hits Of (1997)\15. Rock 'N' Roll Girl.wav Pre-gap length 0:00:01.22 Peak level 99.4 %
Extraction speed 4.3 X
Track quality 99.9 %
Test CRC 4D49EEEA
Copy CRC 4D49EEEA
Accurately ripped (confidence 29) [2787FABB] (AR v2)
Copy OK

Track 16 Filename D:\CD\Katrina & The Waves - Walking On Sunshine - The Greatest Hits Of (1997)\16. (I've Got A) Crush On You.wav Pre-gap length 0:00:00.45 Peak level 84.6 %
Extraction speed 4.8 X
Track quality 100.0 %
Test CRC 81EC0D0D
Copy CRC 81EC0D0D
Accurately ripped (confidence 29) [07612F98] (AR v2)
Copy OK

Track 17 Filename D:\CD\Katrina & The Waves - Walking On Sunshine - The Greatest Hits Of (1997)\17. Rock Myself To Sleep.wav Pre-gap length 0:00:00.47 Peak level 93.8 %
Extraction speed 4.8 X
Track quality 100.0 %
Test CRC FE9BD608
Copy CRC FE9BD608
Accurately ripped (confidence 29) [DF6D2A1A] (AR v2)
Copy OK

Track 18 Filename D:\CD\Katrina & The Waves - Walking On Sunshine - The Greatest Hits Of (1997)\18. Tears Of A Woman.wav Pre-gap length 0:00:00.52 Peak level 77.6 %
Extraction speed 4.5 X
Track quality 99.9 %
Test CRC 077394A9
Copy CRC 077394A9
Accurately ripped (confidence 30) [5AB21AA9] (AR v2)
Copy OK

Track 19 Filename D:\CD\Katrina & The Waves - Walking On Sunshine - The Greatest Hits Of (1997)\19. I Really Taught Me To Watusi.wav Pre-gap length 0:00:00.45 Peak level 88.6 %
Extraction speed 5.1 X
Track quality 100.0 %
Test CRC 829DCDB3
Copy CRC 829DCDB3
Accurately ripped (confidence 28) [972263CD] (AR v2)
Copy OK

All tracks accurately ripped

No errors occurred

End of status report

- CUETools DB Plugin V2.1.3

[CTDB TOCID: u7cKeqZA5a0XRsdgvP9Z7T0IPtQ-] found, Submit result: u7cKeqZA5a0XRsdgvP9Z7T0IPtQ- has been confirmed
d9bf7f6 (35/38) Accurately ripped
[3d9c136b] (02/38) No match
[fc739536] (01/38) No match

==== Log checksum A8E5E1D348BC1024E50BC2BE171F48E72C1EFEE7E3CA43831CFDBD2436A255D8 ====

foobar2000 1.2 / Dynamic Range Meter 1.1.1
log date: 2015-10-20 15:00:48

Analyzed: Katrina & The Waves / Walking On Sunshine - The Greatest Hits Of

DR Peak RMS Duration Track

DR13 -0.05 dB -14.54 dB 3:59 01-Walking On Sunshine
DR12 -0.10 dB -14.64 dB 3:44 02-Red Wine And Whiskey
DR13 -0.05 dB -13.58 dB 3:30 03-Do You Want Crying
DR13 -0.05 dB -14.82 dB 3:21 04-Que Te Quiero
DR14 -0.12 dB -14.95 dB 4:30 05-Going Down To Liverpool
DR13 -0.05 dB -14.30 dB 3:05 06-Machine Gun Smith
DR12 -0.31 dB -14.02 dB 3:18 07-Mexico
DR12 -0.05 dB -13.22 dB 3:18 08-The Game Of Love
DR12 -0.05 dB -13.95 dB 3:42 09-Is That It?
DR12 -0.74 dB -14.38 dB 3:05 10-Tears For Me
DR12 -0.09 dB -13.63 dB 3:13 11-Sun Street
DR13 -0.05 dB -14.25 dB 4:44 12-Lovely Lindsey
DR11 -1.10 dB -15.72 dB 4:01 13-I Can Dream About It
DR12 -1.30 dB -16.15 dB 3:57 14-That's The Way
DR12 -0.05 dB -14.10 dB 4:05 15-Rock 'N' Roll Girl
DR12 -1.45 dB -15.79 dB 3:54 16-(I've Got A) Crush On You
DR12 -0.55 dB -13.98 dB 3:06 17-Rock Myself To Sleep
DR11 -2.19 dB -16.73 dB 3:57 18-Tears Of A Woman
DR12 -1.05 dB -14.47 dB 3:37 19-I Really Taught Me To Watusi

Number of tracks: 19
Official DR value: DR12

Samplerate: 44100 Hz
Channels: 2
Bits per sample: 16
Bitrate: 921 kbps
Codec: FLAC

http://i57.fastpic.ru/big/2015/1022/f3/edb101afe7d4984651e679c3cd6e0bf3.jpg

http://i58.fastpic.ru/big/2015/1022/5d/35809c4e6f0f1dec9fc411881b68555d.jpg

All thanks to original releaser - bachelor-62
Password: designol

DOWNLOAD LINKS:
Buy Premium To Support Me & Get Resumable Support & Max Speed


Links are Interchangeable - No Password - Single Extraction

Katrina & The Waves - Walking On Sunshine: The Greatest Hits Of Katrina & The Waves (1997) Fast Download



 
 
 
Dear visitor, you went to the site as an unregistered user. We encourage you to register or enter the site under your name.
 
   
 
 (Votes #: 0)